<?xml version="1.0" standalone="no"?>
<!DOCTYPE svg PUBLIC "-//W3C//DTD SVG 1.1//EN" "http://www.w3.org/Graphics/SVG/1.1/DTD/svg11.dtd" >
<svg xmlns="http://www.w3.org/2000/svg" xmlns:xlink="http://www.w3.org/1999/xlink" version="1.1">
<metadata>
Created by FontForge 20201107 at Sun Jul  2 22:26:44 2017
 By 
Copyright (c) 2017 by The Refinery LLC. All rights reserved.
</metadata>
<defs>
<font id="ClarikaGeometric-Light" horiz-adv-x="548" >
  <font-face 
    font-family="Clarika Geometric Light"
    font-weight="300"
    font-stretch="normal"
    units-per-em="1000"
    panose-1="0 0 4 0 0 0 0 0 0 0"
    ascent="800"
    descent="-200"
    x-height="444"
    cap-height="640"
    bbox="-601 -236 1104 949"
    underline-thickness="50"
    underline-position="-100"
    unicode-range="U+000D-FB02"
  />
<missing-glyph horiz-adv-x="273" 
d="M136 85q19 0 33 -14.5t14 -35.5q0 -20 -14 -35t-33 -15t-32.5 15t-13.5 35q0 21 13.5 35.5t32.5 14.5z" />
    <glyph glyph-name="onequarter" unicode="&#x31;&#x2f;&#x34;" horiz-adv-x="695" 
d="M517 641h53l-409 -640h-53zM174 260v323l-92 -57l-22 39l118 75h48l-1 -380h-51zM636 128v-45h-44v-83h-52v83h-183l-15 40l157 257h56l-153 -252h138v107h52v-107h44z" />
    <glyph glyph-name="onehalf" unicode="&#x31;&#x2f;&#x32;" horiz-adv-x="745" 
d="M517 641h53l-409 -640h-53zM174 260v323l-92 -57l-22 39l118 75h48l-1 -380h-51zM511 45h174v-45h-260v30l153 157q23 23 34.5 43t11.5 45q0 30 -19 50t-53 20q-21 0 -40 -10.5t-27.5 -19.5t-20.5 -26l-38 29q18 28 50.5 50t76.5 22q55 0 90.5 -31.5t35.5 -82.5
q0 -58 -52 -112z" />
    <glyph glyph-name="threequarters" unicode="&#x33;&#x2f;&#x34;" horiz-adv-x="781" 
d="M602 641h53l-409 -640h-53zM335 367q-1 -51 -39 -84t-104 -33q-73 0 -132 53l30 38q44 -46 102 -46q40 0 63.5 19.5t24.5 50.5q2 50 -45 71q-37 16 -88 -3l-20 33l117 129h-163v45h238v-24l-124 -137q57 4 98.5 -26.5t41.5 -85.5zM721 128v-45h-43v-83h-52v83h-183
l-15 40l157 257h55l-153 -252h139v107h52v-107h43z" />
    <glyph glyph-name="uni2153" unicode="&#x31;&#x2f;&#x33;" horiz-adv-x="765" 
d="M517 641h53l-409 -640h-53zM174 260v323l-92 -57l-22 39l118 75h48l-1 -380h-51zM566 219q57 4 98.5 -26.5t41.5 -85.5q-1 -51 -39 -84t-104 -33q-73 0 -132 53l30 38q44 -46 102 -46q40 0 63.5 19.5t24.5 50.5q2 50 -45 71q-37 16 -88 -3l-21 33l118 129h-163v45h238
v-24z" />
    <glyph glyph-name="uni2154" unicode="&#x32;&#x2f;&#x33;" horiz-adv-x="850" 
d="M323 305v-45h-261v30l154 157q22 23 34 43t12 45q0 30 -19.5 50t-52.5 20q-21 0 -40 -10.5t-27.5 -20t-21.5 -25.5l-38 29q18 27 51 49.5t76 22.5q56 0 91 -31.5t35 -82.5q0 -58 -52 -112l-116 -119h175zM601 641h53l-409 -640h-53zM650 219q58 4 99.5 -26.5t40.5 -85.5
q0 -51 -38 -84t-104 -33q-73 0 -133 53l31 38q44 -46 102 -46q40 0 63.5 19.5t24.5 50.5q2 50 -45 71q-37 16 -88 -3l-21 33l117 129h-162v45h238v-24z" />
    <glyph glyph-name="oneeighth" unicode="&#x31;&#x2f;&#x38;" horiz-adv-x="743" 
d="M517 641h53l-409 -640h-53zM174 260v323l-92 -57l-22 39l118 75h48l-1 -380h-51zM602 204q39 -12 60.5 -39t21.5 -63q0 -45 -35 -78.5t-100.5 -33.5t-101 33.5t-35.5 78.5q0 36 21.5 63t60.5 39q-66 25 -66 88q0 40 33.5 69t86.5 29t86.5 -29t33.5 -69q0 -63 -66 -88z
M548.5 345q-28.5 0 -47.5 -16.5t-19 -42.5t19 -43t47.5 -17t47.5 17t19 43t-19 42.5t-47.5 16.5zM548 35q35 0 58.5 20.5t23.5 51t-23.5 51.5t-58 21t-58.5 -21t-24 -51.5t23.5 -51t58.5 -20.5z" />
    <glyph glyph-name="threeeighths" unicode="&#x33;&#x2f;&#x38;" horiz-adv-x="812" 
d="M588 641h53l-409 -640h-53zM192 295q40 0 63.5 19.5t24.5 50.5q2 50 -45 71q-37 16 -88 -3l-20 33l117 129h-163v45h238v-24l-124 -137q57 4 98.5 -26.5t41.5 -85.5q-1 -51 -39 -84t-104 -33q-73 0 -132 53l30 38q44 -46 102 -46zM671 204q38 -12 59.5 -39t21.5 -63
q0 -45 -35 -78.5t-100.5 -33.5t-100.5 33.5t-35 78.5q0 36 21.5 63t60.5 39q-66 25 -66 88q0 40 33.5 69t86.5 29t86.5 -29t33.5 -69q0 -63 -66 -88zM616.5 345q-28.5 0 -47.5 -16.5t-19 -42.5t19.5 -43t47.5 -17t47 17t19 43t-19 42.5t-47.5 16.5zM617 35q35 0 58 20.5
t23 51t-23.5 51.5t-58 21t-58 -21t-23.5 -51.5t23.5 -51t58.5 -20.5z" />
    <glyph glyph-name="fiveeighths" unicode="&#x35;&#x2f;&#x38;" horiz-adv-x="813" 
d="M589 641h53l-409 -640h-53zM335 373q0 -50 -38 -86.5t-101 -36.5q-82 0 -136 57l30 39q15 -16 23 -23t31.5 -17.5t50.5 -10.5q40 0 63 23.5t23 55.5q0 34 -21 54.5t-54 21.5q-39 0 -69 -24l-50 21l36 193h189v-45h-150l-23 -123q28 23 72 23q55 0 90 -33t34 -89zM672 204
q38 -12 59.5 -39t21.5 -63q0 -45 -35 -78.5t-100.5 -33.5t-100.5 33.5t-35 78.5q0 36 21.5 63t59.5 39q-65 25 -65 88q0 40 33.5 69t86.5 29t86 -29t33 -69q0 -63 -65 -88zM617.5 345q-28.5 0 -47.5 -16.5t-19 -42.5t19 -43t47.5 -17t47.5 17t19 43t-19 42.5t-47.5 16.5z
M618 35q34 0 57.5 20.5t23.5 51t-23.5 51.5t-58 21t-58 -21t-23.5 -51.5t23 -51t59 -20.5z" />
    <glyph glyph-name="seveneighths" unicode="&#x37;&#x2f;&#x38;" horiz-adv-x="700" 
d="M474 641h53l-409 -640h-53zM97 260l158 335h-192v45h255v-30l-163 -350h-58zM559 204q39 -12 60.5 -39t21.5 -63q0 -45 -35 -78.5t-100.5 -33.5t-101 33.5t-35.5 78.5q0 36 22 63t60 39q-65 25 -65 88q0 40 33 69t86.5 29t86.5 -29t33 -69q0 -63 -66 -88zM505.5 345
q-28.5 0 -47.5 -16.5t-19 -42.5t19 -43t47.5 -17t47.5 17t19 43t-19 42.5t-47.5 16.5zM505 35q35 0 58.5 20.5t23.5 51t-23.5 51.5t-58 21t-58.5 -21t-24 -51.5t23.5 -51t58.5 -20.5z" />
    <glyph glyph-name="arrowleft" unicode="&#x3c;&#x2d;&#x2d;" horiz-adv-x="628" 
d="M576 310v-52h-447l208 -208l-35 -35l-234 234v-1l-35 36v0l35 35l234 234l35 -35l-208 -208h447z" />
    <glyph glyph-name="arrowup" unicode="&#x3c;__" horiz-adv-x="628" 
d="M583 294l-35 -35l-208 208v-447h-52v447l-208 -208l-35 35l234 234v1l35 35v0l35 -35v-1z" />
    <glyph glyph-name="arrowright" unicode="&#x2d;&#x2d;&#x3e;" horiz-adv-x="628" 
d="M596 284v0l-36 -36v1l-234 -234l-35 35l208 208h-447v52h447l-208 208l35 35l234 -234z" />
    <glyph glyph-name="arrowdown" unicode="__&#x3e;" horiz-adv-x="628" 
d="M583 290l-234 -234l-35 -36v1v-1l-35 36l-234 234l35 35l208 -208v447h52v-447l208 208z" />
    <glyph glyph-name="arrowboth" unicode="&#x3c;&#x2d;&#x2d;&#x3e;" horiz-adv-x="879" 
d="M839 283v0l-36 -35l-234 -234l-35 35l208 209h-606l209 -209l-36 -35l-234 234l-35 35v0l35 36l234 234l36 -36l-209 -208h606l-208 208l35 36l234 -234z" />
    <glyph glyph-name="arrowupdn" unicode="&#x3c;__&#x3e;" horiz-adv-x="628" 
d="M548 225l35 -35l-234 -234l-35 -35v0l-35 35l-234 234l35 35l208 -208v606l-208 -208l-35 35l234 234l35 35v0l35 -35l234 -234l-35 -35l-208 208v-606z" />
    <glyph glyph-name="uni2196" unicode="&#x3c;&#x2d;_" horiz-adv-x="628" 
d="M541 97l-37 -36l-362 362v-295h-50v331v50v0h50h331v-50h-294z" />
    <glyph glyph-name="uni2197" unicode="_&#x2d;&#x3e;" horiz-adv-x="628" 
d="M536 509v-50v-331h-50v294l-361 -362l-37 37l362 362h-295v50h331h50v0z" />
    <glyph glyph-name="uni2198" unicode="&#x2d;_&#x3e;" horiz-adv-x="628" 
d="M535 107v-49v-1h-50v1h-331v49h294l-361 362l36 36l362 -362v295h50v-331z" />
    <glyph glyph-name="uni2199" unicode="&#x3c;_&#x2d;" horiz-adv-x="628" 
d="M540 469l-362 -362h295v-50h-331h-50v0v50v331h50v-294l361 361z" />
    <glyph glyph-name="fi" unicode="fi" horiz-adv-x="484" 
d="M96 557q0 67 30.5 102t82.5 35q38 0 70 -19l-25 -46q-20 13 -41 13q-57 0 -57 -84v-114h92v-50h-92v-394h-60v394h-55v50h55v113zM381 638q19 0 32 -13.5t13 -32.5t-13 -32t-32 -13t-32.5 13t-13.5 32t13.5 32.5t32.5 13.5zM348 0v444h58v-444h-58z" />
    <glyph glyph-name="fl" unicode="fl" horiz-adv-x="506" 
d="M98 557q0 67 30.5 102t82.5 35q38 0 70 -19l-20 -49q-21 16 -46 16q-57 0 -57 -84v-114h92v-50h-92v-394h-60v394h-57v50h57v113zM371 680h60v-680h-60v680z" />
    <glyph glyph-name="f_f" unicode="ff" horiz-adv-x="526" 
d="M471 642q-57 0 -57 -84v-114h92v-50h-92v-394h-60v394h-198v-394h-60v394h-55v50h55v113q0 67 31 101.5t83 34.5q41 0 78 -23l-28 -45q-22 17 -47 17q-57 0 -57 -84v-114h198v113q0 67 31 101.5t83 34.5q41 0 78 -23l-28 -45q-22 17 -47 17z" />
    <glyph glyph-name="f_f_i" unicode="ffi" horiz-adv-x="746" 
d="M361 557q0 67 31 102t83 35q38 0 69 -19l-24 -46q-20 13 -42 13q-57 0 -57 -84v-114h92v-50h-92v-394h-60v394h-205v-394h-60v394h-55v50h55v113q0 67 31 102t83 35q41 0 78 -24l-28 -45q-22 17 -47 17q-57 0 -57 -84v-114h205v113zM642 636q19 0 32.5 -13t13.5 -32
t-13.5 -32.5t-32.5 -13.5t-32 13.5t-13 32.5t13 32t32 13zM610 0v444h58v-444h-58z" />
    <glyph glyph-name="f_f_l" unicode="ffl" horiz-adv-x="746" 
d="M354 550q0 67 31 102t83 35q38 0 69 -19l-24 -46q-20 13 -42 13q-57 0 -57 -84v-107h92v-50h-92v-394h-60v394h-198v-394h-60v394h-55v50h55v106q0 67 31 101.5t83 34.5q41 0 78 -23l-28 -45q-22 17 -47 17q-57 0 -57 -84v-107h198v106zM612 680h59v-680h-59v680z" />
    <glyph glyph-name="f_t" unicode="ft" horiz-adv-x="521" 
d="M496 444l1 -50h-94l1 -394h-60v394h-186v-394h-60v394h-57v50h57v113q0 67 30.5 102t82.5 35q38 0 70 -19l-25 -46q-20 13 -41 13q-57 0 -57 -84v-114h186v129h59v-129h93z" />
    <glyph glyph-name="t_t" unicode="tt" horiz-adv-x="540" 
d="M510 444v-50h-93v-394h-59v394h-192l1 -394h-60v394h-56v50h56v129h59v-129h192v129h59v-129h93z" />
    <glyph glyph-name=".notdef" horiz-adv-x="273" 
d="M136 85q19 0 33 -14.5t14 -35.5q0 -20 -14 -35t-33 -15t-32.5 15t-13.5 35q0 21 13.5 35.5t32.5 14.5z" />
    <glyph glyph-name=".null" horiz-adv-x="600" 
 />
    <glyph glyph-name="nonmarkingreturn" horiz-adv-x="333" 
 />
    <glyph glyph-name="CR" unicode="&#xd;" horiz-adv-x="600" 
 />
    <glyph glyph-name="space" unicode=" " horiz-adv-x="260" 
 />
    <glyph glyph-name="exclam" unicode="!" horiz-adv-x="231" 
d="M150 640l-10 -474h-50l-10 474h70zM115 -6q-19 0 -32 13.5t-13 32t13 32t32 13.5t32.5 -13.5t13.5 -32t-13.5 -32t-32.5 -13.5z" />
    <glyph glyph-name="quotedbl" unicode="&#x22;" horiz-adv-x="292" 
d="M68 417q-4 74 -14 128.5t-10 68.5q0 16 11.5 28t27.5 12t27 -12t11 -28q0 -14 -9.5 -68.5t-14.5 -128.5h-29zM195 417q-5 74 -14.5 128.5t-9.5 68.5q0 16 11 28t27 12t27.5 -12t11.5 -28q0 -14 -10 -68.5t-14 -128.5h-29z" />
    <glyph glyph-name="numbersign" unicode="#" horiz-adv-x="509" 
d="M500 400h-117l-42 -158h105v-44h-117l-53 -198h-45l53 198h-124l-53 -198h-44l53 198h-106v44h118l42 158h-106v44h118l53 199h45l-53 -199h123l54 199h44l-53 -199h105v-44zM296 242l43 158h-124l-43 -158h124z" />
    <glyph glyph-name="dollar" unicode="$" horiz-adv-x="509" 
d="M450 157q0 -78 -52 -120.5t-127 -47.5v-87h-39v87q-124 7 -192 93l42 39q52 -74 150 -80v270q-36 17 -58.5 30.5t-46 34.5t-34.5 49.5t-11 65.5q0 64 42.5 107.5t107.5 52.5v93h39v-90q100 -3 169 -74l-37 -38q-57 57 -132 60v-246q7 -3 15 -7q80 -39 122 -81.5
t42 -110.5zM143 491q0 -38 21.5 -64t67.5 -51v222q-40 -9 -64.5 -37.5t-24.5 -69.5zM271 42q49 5 82.5 34.5t33.5 76.5q0 49 -29.5 80.5t-86.5 59.5v-251z" />
    <glyph glyph-name="percent" unicode="%" horiz-adv-x="739" 
d="M195.5 378q-59.5 0 -97.5 40t-38 97.5t37.5 97t97.5 39.5t98 -39.5t38 -97t-38 -97.5t-97.5 -40zM136 0l409 640h53l-409 -640h-53zM195 425q38 0 60.5 26t22.5 64t-22.5 64.5t-60 26.5t-60.5 -26.5t-23 -64.5t23.5 -64t59.5 -26zM544 -12q-60 0 -98 39.5t-38 97t38 97.5
t98 40t98 -40t38 -97.5t-38 -97t-98 -39.5zM544 35q38 0 60.5 26t22.5 64q0 37 -22.5 63.5t-60 26.5t-60.5 -26t-23 -64t23.5 -64t59.5 -26z" />
    <glyph glyph-name="ampersand" unicode="&#x26;" horiz-adv-x="614" 
d="M592 26l-48 -39l-85 97q-88 -96 -199 -96q-93 0 -146.5 49.5t-53.5 120.5q0 62 36 117.5t109 95.5q-66 73 -62 146q2 63 42.5 100t105.5 37q43 0 79.5 -21.5t57.5 -58.5l-49 -29q-14 26 -38 41.5t-52 15.5q-36 0 -59.5 -24t-25.5 -61q-2 -24 11 -51t23.5 -40t31.5 -37
l190 -214q32 48 67 119l52 -22q-47 -91 -82 -139zM259 45q88 0 162 81l-179 204q-57 -29 -88 -73t-31 -92q0 -50 37 -85t99 -35z" />
    <glyph glyph-name="quotesingle" unicode="'" horiz-adv-x="165" 
d="M68 417q-4 74 -14 128.5t-10 68.5q0 16 11.5 28t27.5 12t27 -12t11 -28q0 -14 -9.5 -68.5t-14.5 -128.5h-29z" />
    <glyph glyph-name="parenleft" unicode="(" horiz-adv-x="312" 
d="M243 -155q-7 6 -19.5 17.5t-44 53.5t-56 90.5t-44 128t-19.5 165.5q0 61 10 119.5t26 102.5t35.5 83t39.5 66t36 46.5t26 28.5l10 9l34 -35q-7 -6 -17.5 -17.5t-38.5 -51.5t-49.5 -85t-39 -117t-17.5 -149q0 -79 17 -151t40.5 -119t47.5 -82.5t40 -51.5l17 -16z" />
    <glyph glyph-name="parenright" unicode=")" horiz-adv-x="312" 
d="M68 -155l-33 35l17 17t39 50t49 83.5t38.5 117.5t17.5 152q0 77 -16.5 148.5t-40.5 118.5t-47.5 83t-40.5 53l-16 17l33 35q8 -6 20.5 -18.5t44 -55t55.5 -91t44 -127.5t20 -163q0 -63 -10 -122t-26.5 -103t-36 -83t-39 -65t-35.5 -45t-26 -28z" />
    <glyph glyph-name="asterisk" unicode="*" horiz-adv-x="371" 
d="M327 550l-105 -33l66 -90l-39 -29l-65 91l-65 -91l-39 29l67 91l-103 32l15 46l102 -34l-1 105h49l-1 -105l104 35z" />
    <glyph glyph-name="plus" unicode="+" horiz-adv-x="501" 
d="M452 312v-52h-176v-174h-52v174h-175v52h175v176h52v-176h176z" />
    <glyph glyph-name="comma" unicode="," horiz-adv-x="247" 
d="M72 -130l-12 31q35 18 53.5 45t18.5 52q-21 -8 -40.5 3.5t-19.5 35.5q0 20 13 33.5t36 13.5q26 0 42 -22t15 -54q-2 -41 -27.5 -79.5t-78.5 -58.5z" />
    <glyph glyph-name="hyphen" unicode="-" horiz-adv-x="340" 
d="M49 260v52h242v-52h-242z" />
    <glyph glyph-name="period" unicode="." horiz-adv-x="231" 
d="M115 -6q-19 0 -32 13.5t-13 32t13 32t32 13.5t32.5 -13.5t13.5 -32t-13.5 -32t-32.5 -13.5z" />
    <glyph glyph-name="slash" unicode="/" horiz-adv-x="431" 
d="M10 -120l360 817h51l-360 -817h-51z" />
    <glyph glyph-name="zero" unicode="0" horiz-adv-x="587" 
d="M293.5 -10q-106.5 0 -170 91t-63.5 240t63.5 241t170 92t170.5 -92t64 -241t-64 -240t-170.5 -91zM294 41.5q83 0.5 127 78.5t44 201.5t-44 202t-127 78.5t-127.5 -78.5t-44.5 -202.5q0 -123 44.5 -201.5t127.5 -78z" />
    <glyph glyph-name="one" unicode="1" horiz-adv-x="379" 
d="M246 640h53v-640h-59v571l-163 -104l-27 49l196 124v0z" />
    <glyph glyph-name="two" unicode="2" horiz-adv-x="537" 
d="M147 52h330v-52h-417v43l258 270q38 40 59.5 77t21.5 82q0 54 -38 91.5t-96 37.5q-85 1 -142 -82l-45 32q27 41 73 72t114 30q91 -1 144 -52t53 -127q0 -58 -25.5 -104t-71.5 -92z" />
    <glyph glyph-name="three" unicode="3" 
d="M262 370q96 7 161.5 -45t64.5 -143q0 -85 -61 -139t-166 -54q-124 0 -211 82l36 48q37 -37 77 -57.5t98 -20.5q75 0 119.5 40.5t45.5 100.5q0 46 -24.5 80t-63.5 49q-32 14 -68.5 14t-71.5 -7l-20 32l208 238h-302v52h379v-41z" />
    <glyph glyph-name="four" unicode="4" horiz-adv-x="557" 
d="M517 205v-52h-67v-153h-60v153h-326l-14 43l270 444h65l-266 -435h271v191h60v-191h67z" />
    <glyph glyph-name="five" unicode="5" horiz-adv-x="538" 
d="M269 391q90 2 150 -53t60 -146q-1 -84 -60.5 -143t-162.5 -59q-122 -1 -206 82l34 49q69 -79 169 -79q76 0 119 44t44 106q0 66 -43 106.5t-110 40.5q-14 1 -26.5 -1t-22 -4.5t-19 -6t-15.5 -7t-12.5 -8t-9.5 -7t-6.5 -6l-3.5 -3.5l-51 22l54 322h293v-52h-242l-40 -225
q43 28 107 28z" />
    <glyph glyph-name="six" unicode="6" horiz-adv-x="557" 
d="M281 -11q-100 0 -160.5 59.5t-60.5 147.5q-1 27 1.5 47t14.5 49.5t21.5 49.5t40.5 68t54.5 82.5t78.5 114.5q15 22 23 33h66l-187 -274q41 40 117 40q87 0 147 -58t60 -151q0 -87 -61 -147.5t-155 -60.5zM279 41q65 0 110.5 45.5t45.5 111.5q0 65 -45.5 110.5
t-110.5 45.5q-67 0 -112 -46t-45 -110q0 -67 45 -112t112 -45z" />
    <glyph glyph-name="seven" unicode="7" horiz-adv-x="516" 
d="M50 640h416v-42l-274 -598h-66l276 588h-352v52z" />
    <glyph glyph-name="eight" unicode="8" horiz-adv-x="562" 
d="M369 345q63 -20 98 -65t35 -104q0 -35 -13.5 -67.5t-39.5 -59.5t-69.5 -43.5t-98.5 -16.5t-98.5 16.5t-69.5 43.5t-39.5 59.5t-13.5 67.5q0 58 35 103.5t97 65.5q-105 41 -105 145q0 67 54 115t140 48t140 -48t54 -115q0 -104 -106 -145zM148 487q0 -51 38 -85t94.5 -34
t95 34t38.5 85q0 50 -38 82t-95 32t-95 -32t-38 -82zM281 41q68 0 113.5 39.5t45.5 98.5q0 58 -46 97t-113 39q-66 0 -112.5 -39t-46.5 -97q0 -59 45.5 -98.5t113.5 -39.5z" />
    <glyph glyph-name="nine" unicode="9" horiz-adv-x="557" 
d="M276 651q100 0 160.5 -59t60.5 -148q0 -27 -2 -47t-14 -49.5t-21.5 -49t-41 -68t-54.5 -83t-79 -114.5q-14 -22 -22 -33h-66l187 274q-41 -40 -117 -40q-87 0 -147 58.5t-60 151.5q0 87 61 147t155 60zM278 599q-65 0 -110.5 -45t-45.5 -111t45.5 -111.5t110.5 -45.5
q67 0 112 46.5t45 110.5q0 66 -45 111t-112 45z" />
    <glyph glyph-name="colon" unicode=":" horiz-adv-x="231" 
d="M115 365q-19 0 -32 13.5t-13 32.5t13 32t32 13t32.5 -13t13.5 -32t-13.5 -32.5t-32.5 -13.5zM115 -6q-19 0 -32 13.5t-13 32t13 32t32 13.5t32.5 -13.5t13.5 -32t-13.5 -32t-32.5 -13.5z" />
    <glyph glyph-name="semicolon" unicode=";" horiz-adv-x="294" 
d="M145 365q-19 0 -32.5 13.5t-13.5 32.5t13.5 32t32.5 13t32.5 -13t13.5 -32t-13.5 -32.5t-32.5 -13.5zM101 -130l-13 31q35 18 53.5 45t18.5 52q-20 -8 -40 3.5t-20 35.5q0 20 13.5 33.5t35.5 13.5q27 0 42.5 -22t14.5 -54q-1 -41 -26.5 -79.5t-78.5 -58.5z" />
    <glyph glyph-name="less" unicode="&#x3c;" horiz-adv-x="505" 
d="M456 480v-58l-341 -136l341 -135v-59l-407 170v48z" />
    <glyph glyph-name="equal" unicode="=" horiz-adv-x="501" 
d="M49 334v52h403v-52h-403zM49 187v52h403v-52h-403z" />
    <glyph glyph-name="greater" unicode="&#x3e;" horiz-adv-x="505" 
d="M49 480l407 -169v-49l-407 -170v59l341 135l-341 136v58z" />
    <glyph glyph-name="question" unicode="?" horiz-adv-x="431" 
d="M151 164v172q76 -2 127.5 34t49.5 103q-1 57 -40 93t-98 36q-87 0 -137 -72l-43 34q70 90 181 90q84 0 141.5 -48.5t58.5 -126.5q1 -46 -15.5 -82.5t-44.5 -58t-59 -33t-63 -14.5v-127h-58zM180 -6q-19 0 -32.5 13.5t-13.5 32t13.5 32t32.5 13.5t32.5 -13.5t13.5 -32
t-13.5 -32t-32.5 -13.5z" />
    <glyph glyph-name="at" unicode="@" horiz-adv-x="763" 
d="M411 601q71 0 127.5 -23t92 -62.5t54.5 -90.5t19 -109q0 -116 -51.5 -182.5t-116.5 -66.5q-31 0 -54 19t-28 52q-59 -75 -149 -75q-72 0 -111 53.5t-24 141.5q16 89 74.5 143.5t132.5 54.5q43 0 74.5 -23.5t46.5 -64.5l16 76h58l-50 -237q-11 -54 2 -76.5t36 -22.5
q17 0 36 12.5t37.5 36.5t30.5 65.5t12 93.5q0 113 -69.5 186t-198.5 73q-86 0 -160 -49t-117.5 -130.5t-43.5 -173.5q0 -112 67 -184t179 -72q100 0 180 47l13 -22q-89 -51 -196 -51q-122 0 -196 79.5t-74 201.5q0 102 48 190t129 139t174 51zM326 109q57 0 100 41t54 103
q11 68 -16.5 113t-81.5 45q-55 0 -97.5 -44.5t-53.5 -109.5q-11 -67 15 -107.5t80 -40.5z" />
    <glyph glyph-name="A" unicode="A" horiz-adv-x="589" 
d="M513 0l-77 200l-283 -1l-77 -199h-66l254 640h61l255 -640h-67zM170 244h249l-124 323z" />
    <glyph glyph-name="B" unicode="B" horiz-adv-x="538" 
d="M306 356q81 -9 127 -56t46 -117q0 -85 -62 -134t-174 -49h-153v640h134q93 0 145.5 -40t52.5 -110q0 -52 -31 -87.5t-85 -46.5zM231 590h-79v-210h84q54 0 87.5 29t33.5 79q0 49 -32.5 75.5t-93.5 26.5zM242 50q82 0 126.5 36.5t44.5 100.5q0 62 -45 99t-120 37h-96v-273
h90z" />
    <glyph glyph-name="C" unicode="C" horiz-adv-x="621" 
d="M389 -11q-144 0 -236.5 95.5t-92.5 236.5t92.5 236.5t236.5 95.5q109 0 193 -56l-35 -50q-66 51 -158 51q-117 0 -190.5 -80.5t-73.5 -196t73.5 -196.5t190.5 -81q92 0 158 51l35 -50q-84 -56 -193 -56z" />
    <glyph glyph-name="D" unicode="D" horiz-adv-x="653" 
d="M248 640q83 0 150 -25t109 -68.5t64.5 -101t22.5 -125t-22.5 -125t-64.5 -101.5t-109 -69t-150 -25h-158v640h158zM237 50q139 0 215.5 71.5t76.5 198.5q0 128 -76.5 199t-215.5 71h-85v-540h85z" />
    <glyph glyph-name="E" unicode="E" horiz-adv-x="509" 
d="M450 586h-298v-240h248v-52h-248v-240h298v-54h-360v640h360v-54z" />
    <glyph glyph-name="F" unicode="F" horiz-adv-x="459" 
d="M449 586h-297v-240h247v-52h-247v-294h-62v640h359v-54z" />
    <glyph glyph-name="G" unicode="G" horiz-adv-x="746" 
d="M435 337h259v-46q0 -59 -19.5 -112t-56 -96t-95 -68t-131.5 -25q-98 0 -174.5 44.5t-117 120t-40.5 168.5q0 141 92 236t240 95q36 0 69 -6t55.5 -14.5t39.5 -17t25 -13.5l8 -6l-34 -49q-21 18 -63.5 34t-99.5 16q-121 0 -194 -79.5t-73 -196.5q0 -116 73.5 -196.5
t193.5 -80.5q106 0 172.5 65.5t65.5 173.5h-195v53z" />
    <glyph glyph-name="H" unicode="H" horiz-adv-x="648" 
d="M497 640h62v-640h-62v307h-345v-307h-62v640h62v-282h345v282z" />
    <glyph glyph-name="I" unicode="I" horiz-adv-x="241" 
d="M152 640v-640h-62v640h62z" />
    <glyph glyph-name="J" unicode="J" horiz-adv-x="438" 
d="M191 -10q-79 0 -141 57l36 50q45 -52 103 -52q49 0 76 33t27 94v468h62v-463q0 -95 -45.5 -141t-117.5 -46z" />
    <glyph glyph-name="K" unicode="K" horiz-adv-x="563" 
d="M548 0h-85l-311 319v-319h-62v640h62v-281l297 281h83l-319 -300z" />
    <glyph glyph-name="L" unicode="L" horiz-adv-x="439" 
d="M152 54h258v-54h-320v640h62v-586z" />
    <glyph glyph-name="M" unicode="M" horiz-adv-x="800" 
d="M656 640h55v-640h-62v531l-249 -340l-248 340v-531h-62v640h54l256 -355z" />
    <glyph glyph-name="N" unicode="N" horiz-adv-x="682" 
d="M532 640h61v-640h-59l-384 538v-538h-60v640h58l384 -536v536z" />
    <glyph glyph-name="O" unicode="O" horiz-adv-x="785" 
d="M392.5 -10q-96.5 0 -173 44.5t-118 120t-41.5 167.5q0 140 93.5 236t239.5 96t239.5 -96t93.5 -236q0 -92 -42 -167.5t-118.5 -120t-173 -44.5zM392.5 45q118.5 0 193.5 80.5t75 196.5t-75 196t-193.5 80t-193 -80t-74.5 -196t74.5 -196.5t193 -80.5z" />
    <glyph glyph-name="P" unicode="P" horiz-adv-x="521" 
d="M278 640q49 0 92 -19t72.5 -61.5t29.5 -101.5t-29.5 -101t-72.5 -61t-92 -19l-126 -1v-276h-62v640h188zM252 326q74 -1 114.5 33.5t40.5 98.5q0 63 -40.5 98t-114.5 34l-100 -1v-262z" />
    <glyph glyph-name="Q" unicode="Q" horiz-adv-x="785" 
d="M726 322q0 -118 -68 -207t-180 -116l211 -69l-23 -59l-313 121q-131 13 -212 106.5t-81 223.5q0 140 93.5 236t239.5 96t239.5 -96t93.5 -236zM125 322q0 -116 74.5 -196.5t193 -80.5t193.5 80.5t75 196.5t-75 196t-193.5 80t-193 -80t-74.5 -196z" />
    <glyph glyph-name="R" unicode="R" horiz-adv-x="537" 
d="M431 0l-217 296h-62v-296h-62v640h168q88 0 146 -48t58 -126q0 -75 -52.5 -119t-125.5 -50l224 -297h-77zM152 589v-242h94q70 0 110.5 30t40.5 88q0 60 -41.5 92t-115.5 32h-88z" />
    <glyph glyph-name="S" unicode="S" horiz-adv-x="512" 
d="M253 -10q-139 0 -213 94l49 42q60 -81 163 -81q55 0 95 30.5t40 81.5t-33.5 82.5t-96.5 58.5q-28 13 -39.5 18t-35 17.5t-34 21t-26.5 24t-23 30.5t-13 36t-6 46q0 72 54 117t129 45q107 0 177 -73l-45 -41q-60 59 -133 59q-51 0 -84.5 -30t-33.5 -77q0 -48 33.5 -78
t108.5 -61q78 -33 122 -78t44 -112q0 -44 -17 -78t-46 -54t-63.5 -30t-72.5 -10z" />
    <glyph glyph-name="T" unicode="T" horiz-adv-x="465" 
d="M446 640v-54h-182v-586h-62v586h-182v54h426z" />
    <glyph glyph-name="U" unicode="U" horiz-adv-x="627" 
d="M313.5 -10q-108.5 0 -168.5 63.5t-60 189.5v397h62v-389q0 -103 43.5 -154.5t123 -51.5t123.5 51.5t44 154.5v389h62v-397q0 -126 -60.5 -189.5t-169 -63.5z" />
    <glyph glyph-name="V" unicode="V" horiz-adv-x="589" 
d="M511 640h69l-259 -640h-53l-258 640h68l217 -562z" />
    <glyph glyph-name="W" unicode="W" horiz-adv-x="887" 
d="M802 640h65l-212 -640h-49l-163 556l-162 -556h-49l-212 640h65l172 -550l160 550h53l160 -550z" />
    <glyph glyph-name="X" unicode="X" horiz-adv-x="577" 
d="M547 0h-76l-183 276l-182 -276h-76l222 325l-211 315h74l174 -267l175 267h72l-211 -315z" />
    <glyph glyph-name="Y" unicode="Y" horiz-adv-x="508" 
d="M508 640l-223 -336v-304h-62v304l-223 336h73l181 -277l181 277h73z" />
    <glyph glyph-name="Z" unicode="Z" horiz-adv-x="566" 
d="M136 54h370v-54h-446v46l349 540h-333v54h411v-46z" />
    <glyph glyph-name="bracketleft" unicode="[" horiz-adv-x="273" 
d="M228 751v-46h-84v-810h84v-46h-138v902h138z" />
    <glyph glyph-name="backslash" unicode="\" horiz-adv-x="431" 
d="M421 -120h-51l-360 817h51z" />
    <glyph glyph-name="bracketright" unicode="]" horiz-adv-x="273" 
d="M45 751h138v-902h-138v46h84v810h-84v46z" />
    <glyph glyph-name="asciicircum" unicode="^" horiz-adv-x="510" 
d="M451 326h-61l-135 262l-135 -262h-60l170 317h51z" />
    <glyph glyph-name="underscore" unicode="_" horiz-adv-x="460" 
d="M0 -104v33h460v-33h-460z" />
    <glyph glyph-name="grave" unicode="`" horiz-adv-x="276" 
d="M129 557l-85 90l62 11l126 -148h-26q-17 0 -33 8.5t-44 38.5z" />
    <glyph glyph-name="a" unicode="a" 
d="M424 447h49v-447h-49l-8 84q-27 -45 -70 -69.5t-98 -24.5q-90 0 -149 64t-59 168.5t59 169t148 64.5q56 0 99 -25t70 -70zM260 41q71 0 116 52t45 130t-45 129.5t-117 51.5q-70 0 -114 -51.5t-44 -129.5t44.5 -130t114.5 -52z" />
    <glyph glyph-name="b" unicode="b" horiz-adv-x="547" 
d="M300 456q90 0 149 -64.5t59 -169t-59 -169t-149 -64.5q-55 0 -98.5 25.5t-69.5 70.5l-8 -85h-49v680h59v-315q27 43 69.5 67t96.5 24zM288 41q70 0 114.5 52t44.5 130t-44.5 129.5t-114.5 51.5q-71 0 -116 -51.5t-45 -129.5t45 -130t116 -52z" />
    <glyph glyph-name="c" unicode="c" horiz-adv-x="435" 
d="M266 -10q-100 0 -163 67t-63 165.5t63 166t163 67.5q86 0 147 -50l-36 -42q-44 41 -111 41q-75 0 -120 -52t-45 -130.5t45 -130t120 -51.5q67 0 111 41l36 -42q-61 -50 -147 -50z" />
    <glyph glyph-name="d" unicode="d" horiz-adv-x="547" 
d="M413 680h60v-680h-49l-8 85q-27 -45 -70.5 -70t-98.5 -25q-89 0 -148.5 64t-59.5 168.5t59.5 169t148.5 64.5q54 0 96.5 -24t69.5 -67v315zM259 41q71 0 116.5 52t45.5 130t-45.5 129.5t-116.5 51.5q-70 0 -114.5 -51.5t-44.5 -129.5t44.5 -130t114.5 -52z" />
    <glyph glyph-name="e" unicode="e" horiz-adv-x="508" 
d="M469 242v-25h-367q2 -76 46.5 -126t119.5 -50q88 0 136 58l42 -35q-29 -35 -75.5 -54.5t-102.5 -19.5q-102 0 -165 67.5t-63 167.5q0 97 62 164t157 67q93 0 151.5 -61.5t58.5 -152.5zM259 405q-61 0 -102.5 -40.5t-51.5 -104.5h305q-6 66 -46.5 105.5t-104.5 39.5z" />
    <glyph glyph-name="f" unicode="f" horiz-adv-x="269" 
d="M215 642q-57 0 -57 -84v-114h92v-50h-92v-394h-60v394h-57v50h57v113q0 67 30.5 101.5t82.5 34.5q42 0 78 -23l-27 -45q-22 17 -47 17z" />
    <glyph glyph-name="g" unicode="g" 
d="M425 444h48v-428q0 -108 -50.5 -167t-150.5 -59q-54 0 -96 15l15 53q37 -16 80 -16q72 0 107.5 45t35.5 128v65q-27 -43 -69.5 -66.5t-96.5 -23.5q-90 0 -149 64t-59 168.5t59 169t148 64.5q56 0 99.5 -25.5t69.5 -69.5zM260 41q71 0 116 52t45 130t-45 129.5t-117 51.5
q-70 0 -114 -51.5t-44 -129.5t44.5 -130t114.5 -52z" />
    <glyph glyph-name="h" unicode="h" horiz-adv-x="516" 
d="M280 456q31 0 59 -9.5t53 -29.5t40 -58.5t15 -89.5v-269h-60v258q0 70 -31 108t-88 38t-95 -43t-39 -130v-231h-59v680h59v-326q19 52 57.5 77t88.5 25z" />
    <glyph glyph-name="i" unicode="i" horiz-adv-x="207" 
d="M104 547q-19 0 -32.5 13t-13.5 32t13.5 32.5t32.5 13.5t32 -13.5t13 -32.5t-13 -32t-32 -13zM75 0v444h58v-444h-58z" />
    <glyph glyph-name="j" unicode="j" horiz-adv-x="181" 
d="M93 546q-19 0 -32.5 13.5t-13.5 32.5t13.5 32.5t32.5 13.5t32.5 -13.5t13.5 -32.5t-13.5 -32.5t-32.5 -13.5zM123 444v-525q0 -129 -108 -129q-27 0 -35 7l6 51q6 -6 27 -6q20 0 35 16t15 56v530h60z" />
    <glyph glyph-name="k" unicode="k" horiz-adv-x="456" 
d="M452 0h-83l-235 224v-224h-59v680h59v-419l208 183h82l-229 -201z" />
    <glyph glyph-name="l" unicode="l" horiz-adv-x="209" 
d="M75 0v680h59v-680h-59z" />
    <glyph glyph-name="m" unicode="m" horiz-adv-x="774" 
d="M547 456q30 0 56 -9.5t49.5 -30.5t37.5 -61t14 -94v-261h-60v259q0 68 -26.5 106.5t-80.5 38.5q-53 0 -84 -39.5t-34 -112.5v-252h-59v262q0 64 -27.5 103t-80.5 39q-52 0 -83.5 -39t-34.5 -109v-256h-59v444h52l6 -70q18 39 52.5 60.5t76.5 21.5q43 0 81 -22t58 -70
q40 92 146 92z" />
    <glyph glyph-name="n" unicode="n" horiz-adv-x="515" 
d="M279 456q31 0 59 -9.5t53 -29.5t40 -58.5t15 -89.5v-269h-60v258q0 70 -30.5 108t-88.5 38q-53 0 -90.5 -38.5t-42.5 -115.5v-250h-59v444h52l7 -82v-6q19 51 57.5 75.5t87.5 24.5z" />
    <glyph glyph-name="o" unicode="o" horiz-adv-x="544" 
d="M272 -10q-101 0 -166.5 67t-65.5 165.5t65.5 166t166.5 67.5t167 -67.5t66 -166t-66 -165.5t-167 -67zM272 42q74 0 122 52t48 128.5t-48 129t-122 52.5t-122 -52.5t-48 -129t48 -128.5t122 -52z" />
    <glyph glyph-name="p" unicode="p" 
d="M300 456q90 0 149 -64.5t59 -169t-59 -169t-149 -64.5q-54 0 -96.5 24t-69.5 67v-290h-59v654h51l6 -82q27 44 70 69t98 25zM288 41q70 0 114.5 52t44.5 130t-44.5 129.5t-114.5 51.5q-71 0 -116 -51.5t-45 -129.5t45 -130t116 -52z" />
    <glyph glyph-name="q" unicode="q" 
d="M421 444h52v-654h-59v290q-27 -43 -69.5 -66.5t-96.5 -23.5q-90 0 -149 64t-59 168.5t59 169t148 64.5q55 0 98.5 -25t70.5 -69zM260 41q71 0 116 52t45 130t-45 129.5t-117 51.5q-70 0 -114 -51.5t-44 -129.5t44.5 -130t114.5 -52z" />
    <glyph glyph-name="r" unicode="r" horiz-adv-x="317" 
d="M247 456q35 0 60 -13l-18 -54q-20 9 -44 9q-52 0 -81 -41t-30 -102v-3v1v-1v-252h-59v444h51l8 -77q31 89 113 89z" />
    <glyph glyph-name="s" unicode="s" horiz-adv-x="404" 
d="M35 65l45 36q42 -60 121 -60q48 0 74.5 19.5t26.5 51.5q0 25 -18 42.5t-45 26t-58 20t-58 24.5t-45 39t-18 63q-1 57 41 93t111 36q44 0 80.5 -15.5t59.5 -39.5l-38 -39q-42 42 -102 42q-43 -1 -67 -21t-24 -53q0 -26 18 -44.5t45 -27.5t59 -20.5t59 -23.5t45 -37.5
t18 -61.5q0 -58 -45 -91.5t-119 -33.5q-56 0 -100.5 21t-65.5 54z" />
    <glyph glyph-name="t" unicode="t" horiz-adv-x="275" 
d="M250 444v-50h-93l1 -394h-60v394h-57v50h57v129h59v-129h93z" />
    <glyph glyph-name="u" unicode="u" horiz-adv-x="510" 
d="M255 -12q-35 0 -66 9.5t-59 30.5t-44 60.5t-16 93.5v262h59v-262q0 -67 33 -104.5t93 -37.5t93 37.5t33 104.5v262h59v-262q0 -54 -16 -93.5t-44 -60.5t-59 -30.5t-66 -9.5z" />
    <glyph glyph-name="v" unicode="v" horiz-adv-x="442" 
d="M373 444h64l-191 -444h-50l-191 444h64l152 -375z" />
    <glyph glyph-name="w" unicode="w" horiz-adv-x="717" 
d="M629 444h64l-170 -444h-49l-115 374l-115 -374h-50l-169 444h63l131 -366l114 366h51l115 -366z" />
    <glyph glyph-name="x" unicode="x" horiz-adv-x="414" 
d="M410 0h-72l-131 188l-131 -188h-71l170 232l-152 212h70l114 -167l114 167h70l-151 -211z" />
    <glyph glyph-name="y" unicode="y" horiz-adv-x="442" 
d="M373 444h64l-281 -654h-62l96 220l-185 434h64l152 -364z" />
    <glyph glyph-name="z" unicode="z" horiz-adv-x="459" 
d="M121 53h294v-53h-370v44l280 347h-266v53h339v-49z" />
    <glyph glyph-name="braceleft" unicode="{" horiz-adv-x="309" 
d="M245 705q-30 0 -43 -9.5t-13 -39.5v-258q0 -23 -7.5 -41.5t-18.5 -28.5t-21.5 -16.5t-18.5 -9.5l-8 -2q3 -1 8 -2.5t18 -9t22.5 -17t17.5 -28t8 -41.5v-258q0 -30 13 -39.5t43 -9.5h29v-46h-53q-39 0 -63 25t-24 67v257q0 21 -7.5 37t-18.5 24t-22 13t-19 7l-7 1v40
q3 0 8 1t18 6.5t22.5 13.5t17.5 24t8 37v257q0 42 24 67t63 25h53v-46h-29z" />
    <glyph glyph-name="bar" unicode="|" horiz-adv-x="227" 
d="M90 710h48v-870h-48v870z" />
    <glyph glyph-name="braceright" unicode="}" horiz-adv-x="309" 
d="M175 402q0 -21 7.5 -37t18.5 -24t22 -13t19 -7l7 -1v-40q-3 0 -8 -1t-18 -6.5t-22.5 -13.5t-17.5 -24t-8 -37v-257q0 -42 -23.5 -67t-63.5 -25h-53v46h29q30 0 43 9.5t13 39.5v258q0 23 7.5 41.5t18.5 28.5t21.5 16.5t18.5 9.5l8 2q-3 1 -8 2.5t-18 9t-22.5 17t-17.5 28
t-8 41.5v258q0 30 -13 39.5t-43 9.5h-29v46h53q40 0 63.5 -25t23.5 -67v-257z" />
    <glyph glyph-name="asciitilde" unicode="~" horiz-adv-x="428" 
d="M279 234q-31 0 -68 24.5t-59 24.5q-36 0 -59 -43l-44 29q9 14 14.5 22t18 20.5t28.5 18.5t36 6q30 0 69 -24.5t61 -24.5q35 0 55 46l47 -25q-35 -74 -99 -74z" />
    <glyph glyph-name="uni00A0" unicode="&#xa0;" horiz-adv-x="260" 
 />
    <glyph glyph-name="exclamdown" unicode="&#xa1;" horiz-adv-x="231" 
d="M115 456q19 0 32.5 -13.5t13.5 -32t-13.5 -32t-32.5 -13.5t-32 13.5t-13 32t13 32t32 13.5zM80 -190l10 474h50l10 -474h-70z" />
    <glyph glyph-name="cent" unicode="&#xa2;" horiz-adv-x="435" 
d="M266 139q67 0 111 41l36 -42q-61 -50 -147 -50q-17 0 -34 2l-17 -90h-40l20 98q-71 22 -113 83t-42 140q0 98 63 165.5t163 67.5q10 0 19 -1l17 87h40l-19 -92q51 -12 90 -44l-36 -42q-27 25 -64 35l-71 -357q12 -1 24 -1zM101 321q0 -61 27.5 -107t76.5 -64l70 352
q-4 1 -9 1q-75 0 -120 -52t-45 -130z" />
    <glyph glyph-name="sterling" unicode="&#xa3;" horiz-adv-x="542" 
d="M204 306l-1 -254h269v-52h-412v44l84 7v255h-84v47h84v93q0 100 53.5 153.5t139.5 53.5q84 0 145 -54l-33 -44q-47 46 -112 46q-61 0 -97 -39.5t-36 -115.5v-92h225v-48h-225z" />
    <glyph glyph-name="currency" unicode="&#xa4;" horiz-adv-x="555" 
d="M495 144l-35 -37l-68 66q-50 -38 -114 -38q-66 0 -116 39l-66 -66l-36 36l67 67q-37 50 -37 114t37 115l-67 68l36 36l67 -67q50 38 115 38t115 -38l66 67l36 -36l-66 -67q37 -51 37 -116t-38 -116zM146 325.5q0 -58.5 38 -99.5t94 -41t94 41t38 99.5t-38 99t-93.5 40.5
t-94 -40.5t-38.5 -99z" />
    <glyph glyph-name="yen" unicode="&#xa5;" horiz-adv-x="550" 
d="M529 640l-215 -322h143v-46h-152v-65h152v-47h-152v-160h-60v160h-152v47h152v65h-152v46h142l-214 322h70l184 -284l184 284h70z" />
    <glyph glyph-name="brokenbar" unicode="&#xa6;" horiz-adv-x="227" 
d="M90 625h48v-285h-48v285zM90 210h48v-285h-48v285z" />
    <glyph glyph-name="section" unicode="&#xa7;" horiz-adv-x="470" 
d="M410 208q-2 -81 -70 -122q50 -46 47 -110q-2 -67 -51 -101.5t-124 -34.5q-22 0 -43.5 4t-38 11t-31.5 15t-25.5 16.5t-18.5 15t-12 10.5l-3 5l37 40q1 -3 5 -7t17 -15.5t27.5 -20.5t38 -16t48.5 -8q55 0 86.5 24t32.5 61q2 38 -22.5 65t-85.5 59q-4 3 -24 15t-26.5 16
t-24.5 16.5t-25.5 19.5t-21.5 20t-20.5 24t-14.5 25.5t-11 30t-3 31.5q1 39 20.5 70.5t56.5 49.5q-54 46 -53 106q0 55 40 92.5t110 38.5q38 0 74 -13t48.5 -22t21.5 -18l-36 -40q-7 7 -17 14.5t-36 19t-52 11.5q-43 1 -71.5 -23t-28.5 -60q-1 -34 31.5 -63t105.5 -67
q147 -81 143 -185zM356 211q1 42 -28 72.5t-104 72.5q-41 24 -45 26q-33 -10 -52.5 -31.5t-20.5 -49.5q0 -40 37.5 -77t125.5 -89q11 -6 21 -12q32 12 48.5 35.5t17.5 52.5z" />
    <glyph glyph-name="dieresis" unicode="&#xa8;" horiz-adv-x="331" 
d="M84 605q17 0 29 -12t12 -29t-12 -29.5t-29 -12.5t-28.5 12.5t-11.5 29.5t11.5 29t28.5 12zM246 605q17 0 29 -12t12 -29t-12 -29.5t-29 -12.5t-28.5 12.5t-11.5 29.5t11.5 29t28.5 12z" />
    <glyph glyph-name="copyright" unicode="&#xa9;" horiz-adv-x="781" 
d="M391 -10q-95 0 -171 44.5t-118 120.5t-42 167t42 166.5t118 120.5t171 45q93 0 169.5 -45t118.5 -121t42 -166.5t-42.5 -166.5t-118.5 -120.5t-169 -44.5zM391 26q126 0 208.5 86.5t82.5 209.5t-82 209t-209 86q-130 0 -211 -86t-81 -209q0 -124 81 -210t211 -86z
M397 121q-87 0 -142.5 57.5t-55.5 142.5t55.5 143t142.5 58q66 0 115 -35l-25 -40q-36 27 -90 27q-64 0 -104.5 -44.5t-40.5 -108.5t40.5 -108.5t104.5 -44.5q54 0 90 26l25 -38q-49 -35 -115 -35z" />
    <glyph glyph-name="ordfeminine" unicode="&#xaa;" horiz-adv-x="405" 
d="M323 650h42v-322h-42l-6 61q-37 -66 -122 -66q-67 0 -111 46t-44 120t44 120t111 46q83 0 122 -72zM205 370q51 0 83.5 34t32.5 85t-32.5 85t-83.5 34q-48 0 -79 -34t-31 -85t31 -85t79 -34zM55 223v43h310v-43h-310z" />
    <glyph glyph-name="guillemotleft" unicode="&#xab;" horiz-adv-x="431" 
d="M250 420l-153 -178l153 -178h-59l-151 178l151 178h59zM391 420l-153 -178l153 -178h-59l-152 178l152 178h59z" />
    <glyph glyph-name="logicalnot" unicode="&#xac;" horiz-adv-x="441" 
d="M49 308v48h342v-171h-48v123h-294z" />
    <glyph glyph-name="uni00AD" unicode="&#xad;" horiz-adv-x="340" 
d="M49 260v52h242v-52h-242z" />
    <glyph glyph-name="registered" unicode="&#xae;" horiz-adv-x="491" 
d="M246 654q88 0 144.5 -58.5t56.5 -142.5q0 -85 -57 -143.5t-144.5 -58.5t-144.5 58.5t-57 143.5q0 84 57 142.5t145 58.5zM246 277q77 0 126 51t49 125q0 73 -49 124t-126.5 51t-126 -51t-48.5 -124q0 -74 48.5 -125t126.5 -51zM325 497q0 -28 -18 -44t-44 -19l73 -93h-48
l-68 92h-13v-92h-36v220l27 1h5h4l46 -1q29 0 50.5 -16.5t21.5 -47.5zM207 527v-63h38q39 0 39 31q0 32 -39 32h-38z" />
    <glyph glyph-name="macron" unicode="&#xaf;" horiz-adv-x="351" 
d="M44 652v42h263v-42h-263z" />
    <glyph glyph-name="degree" unicode="&#xb0;" horiz-adv-x="357" 
d="M178.5 653q55.5 0 95 -39.5t39.5 -95.5t-39.5 -95.5t-95 -39.5t-95 39.5t-39.5 95.5t39.5 95.5t95 39.5zM178.5 427q36.5 0 62.5 26.5t26 64.5t-26 64.5t-62.5 26.5t-62.5 -26.5t-26 -64.5t26 -64.5t62.5 -26.5z" />
    <glyph glyph-name="plusminus" unicode="&#xb1;" horiz-adv-x="502" 
d="M224 123v175h-175v52h175v175h52v-175h176v-52h-176v-175h-52zM50 60h402v-52h-402v52z" />
    <glyph glyph-name="uni00B2" unicode="&#xb2;" horiz-adv-x="363" 
d="M138 405h175v-45h-261v30l154 157q22 23 34 43t12 45q0 30 -19.5 50t-52.5 20q-21 0 -40 -10.5t-27.5 -19.5t-21.5 -26l-38 29q18 28 51 50t76 22q56 0 91 -31.5t35 -82.5q0 -58 -52 -112z" />
    <glyph glyph-name="uni00B3" unicode="&#xb3;" horiz-adv-x="364" 
d="M175 579q57 4 98.5 -26.5t41.5 -85.5q-1 -51 -39 -84t-104 -33q-73 0 -132 53l30 38q44 -46 102 -46q40 0 63.5 19.5t24.5 50.5q2 50 -45 71q-37 16 -88 -3l-20 33l117 129h-163v45h238v-24z" />
    <glyph glyph-name="acute" unicode="&#xb4;" horiz-adv-x="276" 
d="M147 557q-28 -30 -44 -38.5t-33 -8.5h-26l127 148l61 -11z" />
    <glyph glyph-name="uni00B5" unicode="&#xb5;" horiz-adv-x="520" 
d="M386 444h60v-444h-52l-8 82v6q-18 -50 -55.5 -75t-81.5 -25q-64 0 -116 52l-7 -230h-51v634h59v-258q0 -69 30.5 -107.5t88.5 -38.5q54 0 91 38.5t42 115.5v250z" />
    <glyph glyph-name="paragraph" unicode="&#xb6;" horiz-adv-x="466" 
d="M377 640v-790h-47v748h-91v-748h-46v474h-7q-59 0 -97.5 45t-38.5 113q0 67 38.5 112.5t97.5 45.5h191z" />
    <glyph glyph-name="periodcentered" unicode="&#xb7;" horiz-adv-x="211" 
d="M105 230q-19 0 -32 13.5t-13 32.5t13 32t32 13t32.5 -13t13.5 -32t-13.5 -32.5t-32.5 -13.5z" />
    <glyph glyph-name="cedilla" unicode="&#xb8;" horiz-adv-x="325" 
d="M191 -48q28 -3 46.5 -20.5t17.5 -48.5t-29.5 -51t-76.5 -20q-25 0 -47.5 5t-32.5 11l-9 5l16 33q25 -16 67 -18q31 -1 46 11t15 29q-1 27 -32.5 32.5t-57.5 -8.5l-21 18l58 87h30v-12l-42 -61q3 1 7 2.5t17.5 4t27.5 1.5z" />
    <glyph glyph-name="uni00B9" unicode="&#xb9;" horiz-adv-x="236" 
d="M138 740h48l-1 -380h-51v323l-92 -57l-22 39z" />
    <glyph glyph-name="ordmasculine" unicode="&#xba;" horiz-adv-x="415" 
d="M207.5 322q-73.5 0 -120.5 48t-47 119q0 69 47 117.5t120.5 48.5t120.5 -48.5t47 -117.5q0 -71 -47 -119t-120.5 -48zM207.5 369q49.5 0 80.5 35t31 85t-31 84t-80.5 34t-80.5 -34t-31 -84t31 -85t80.5 -35zM50 223v43h315v-43h-315z" />
    <glyph glyph-name="guillemotright" unicode="&#xbb;" horiz-adv-x="431" 
d="M99 420l151 -178l-151 -178h-59l153 178l-153 178h59zM240 420l151 -178l-151 -178h-59l153 178l-154 178h60z" />
    <glyph glyph-name="questiondown" unicode="&#xbf;" horiz-adv-x="471" 
d="M271 457q19 0 32.5 -13.5t13.5 -32t-13.5 -32t-32.5 -13.5t-32.5 13.5t-13.5 32t13.5 32t32.5 13.5zM300 287v-171q-76 1 -127.5 -35t-50.5 -103q2 -57 41 -92.5t97 -35.5q88 0 138 71l43 -34q-70 -89 -181 -89q-84 0 -141.5 48t-58.5 126q-1 46 15.5 82.5t44.5 58t59 33
t63 14.5v127h58z" />
    <glyph glyph-name="Agrave" unicode="&#xc0;" horiz-adv-x="589" 
d="M356 690q-18 0 -34 9t-44 39l-85 89l62 11l127 -148h-26zM513 0l-77 200l-283 -1l-77 -199h-66l254 640h61l255 -640h-67zM170 244h249l-124 323z" />
    <glyph glyph-name="Aacute" unicode="&#xc1;" horiz-adv-x="589" 
d="M328 738q-28 -30 -44 -39t-33 -9h-26l127 148l61 -11zM513 0l-77 200l-283 -1l-77 -199h-66l254 640h61l255 -640h-67zM170 244h249l-124 323z" />
    <glyph glyph-name="Acircumflex" unicode="&#xc2;" horiz-adv-x="589" 
d="M242 707q-17 -17 -38 -17h-41l105 110h54l104 -110h-40q-22 0 -39 17l-52 52zM513 0l-77 200l-283 -1l-77 -199h-66l254 640h61l255 -640h-67zM170 244h249l-124 323z" />
    <glyph glyph-name="Atilde" unicode="&#xc3;" horiz-adv-x="589" 
d="M244 738q-30 0 -50 -36l-36 24q10 16 17 25t24.5 20t39.5 11q25 0 57.5 -20.5t50.5 -20.5q30 0 46 39l39 -21q-29 -62 -83 -62q-25 0 -56 20.5t-49 20.5zM513 0l-77 200l-283 -1l-77 -199h-66l254 640h61l255 -640h-67zM170 244h249l-124 323z" />
    <glyph glyph-name="Adieresis" unicode="&#xc4;" horiz-adv-x="589" 
d="M213.5 705q-16.5 0 -28.5 12t-12 29t12 29t28.5 12t28.5 -12t12 -29t-12 -29t-28.5 -12zM375 705q-17 0 -28.5 12t-11.5 29t11.5 29t28.5 12t29 -12t12 -29t-12 -29t-29 -12zM513 0l-77 200l-283 -1l-77 -199h-66l254 640h61l255 -640h-67zM170 244h249l-124 323z" />
    <glyph glyph-name="Aring" unicode="&#xc5;" horiz-adv-x="589" 
d="M294.5 674q-41.5 0 -71 28.5t-29.5 69t29.5 69t71 28.5t71 -28.5t29.5 -69t-29.5 -69t-71 -28.5zM294.5 828q-24.5 0 -42 -16.5t-17.5 -40t17.5 -40t42 -16.5t42 16.5t17.5 40t-17.5 40t-42 16.5zM513 0l-77 200l-283 -1l-77 -199h-66l254 640h61l255 -640h-67zM170 244
h249l-124 323z" />
    <glyph glyph-name="AE" unicode="&#xc6;" horiz-adv-x="782" 
d="M722 588h-383l72 -245h259v-51h-245l70 -238h227v-54h-278l-50 186h-248l-70 -186h-66l254 643h458v-55zM165 239h215l-90 336z" />
    <glyph glyph-name="Ccedilla" unicode="&#xc7;" horiz-adv-x="621" 
d="M389 -11h-7l-32 -48q2 1 6.5 3t18 4.5t27.5 0.5q28 -3 46.5 -20.5t17.5 -47.5q-1 -32 -29.5 -52t-76.5 -20q-25 0 -47.5 5.5t-32.5 10.5l-10 6l17 33q25 -16 66 -18q32 -2 47 10.5t15 29.5q-1 26 -32.5 32t-57.5 -8l-21 18l42 63q-127 15 -206.5 107.5t-79.5 222.5
q0 141 92.5 236.5t236.5 95.5q109 0 193 -56l-35 -50q-66 51 -158 51q-117 0 -190.5 -80.5t-73.5 -196t73.5 -196.5t190.5 -81q92 0 158 51l35 -50q-84 -56 -193 -56z" />
    <glyph glyph-name="Egrave" unicode="&#xc8;" horiz-adv-x="509" 
d="M328 690q-18 0 -34 9t-44 39l-85 89l62 11l126 -148h-25zM450 586h-298v-240h248v-52h-248v-240h298v-54h-360v640h360v-54z" />
    <glyph glyph-name="Eacute" unicode="&#xc9;" horiz-adv-x="509" 
d="M300 738q-28 -30 -44 -39t-33 -9h-26l127 148l61 -11zM450 586h-298v-240h248v-52h-248v-240h298v-54h-360v640h360v-54z" />
    <glyph glyph-name="Ecircumflex" unicode="&#xca;" horiz-adv-x="509" 
d="M214 707q-17 -17 -38 -17h-41l104 110h55l104 -110h-40q-22 0 -39 17l-52 52zM450 586h-298v-240h248v-52h-248v-240h298v-54h-360v640h360v-54z" />
    <glyph glyph-name="Edieresis" unicode="&#xcb;" horiz-adv-x="509" 
d="M185.5 705q-16.5 0 -28.5 12t-12 29t12 29t28.5 12t28.5 -12t12 -29t-12 -29t-28.5 -12zM347 705q-17 0 -28.5 12t-11.5 29t11.5 29t28.5 12t29 -12t12 -29t-12 -29t-29 -12zM450 586h-298v-240h248v-52h-248v-240h298v-54h-360v640h360v-54z" />
    <glyph glyph-name="Igrave" unicode="&#xcc;" horiz-adv-x="241" 
d="M104 738l-85 89l62 11l127 -148h-26q-18 0 -34 9t-44 39zM152 640v-640h-62v640h62z" />
    <glyph glyph-name="Iacute" unicode="&#xcd;" horiz-adv-x="241" 
d="M154 738q-28 -30 -44 -39t-33 -9h-26l127 148l61 -11zM152 640v-640h-62v640h62z" />
    <glyph glyph-name="Icircumflex" unicode="&#xce;" horiz-adv-x="241" 
d="M148 800l104 -110h-40q-22 0 -38 17l-53 52l-53 -52q-17 -17 -38 -17h-40l104 110h54zM90 0v640h62v-640h-62z" />
    <glyph glyph-name="Idieresis" unicode="&#xcf;" horiz-adv-x="241" 
d="M39.5 787q16.5 0 28.5 -12t12 -29t-12 -29t-28.5 -12t-28.5 12t-12 29t12 29t28.5 12zM201 787q17 0 29 -12t12 -29t-12 -29t-29 -12t-28.5 12t-11.5 29t11.5 29t28.5 12zM152 640v-640h-62v640h62z" />
    <glyph glyph-name="Eth" unicode="&#xd0;" horiz-adv-x="653" 
d="M248 640q83 0 150 -25t109 -68.5t64.5 -101t22.5 -125t-22.5 -125t-64.5 -101.5t-109 -69t-150 -25h-158v301h-62v42h62v297h158zM237 50q139 0 215.5 71.5t76.5 198.5q0 128 -76.5 199t-215.5 71h-85v-247h139v-42h-139v-251h85z" />
    <glyph glyph-name="Ntilde" unicode="&#xd1;" horiz-adv-x="682" 
d="M291 738q-30 0 -50 -36l-37 24q11 16 18 25t24.5 20t38.5 11q26 0 58.5 -20.5t50.5 -20.5q29 0 46 39l39 -21q-29 -62 -83 -62q-26 0 -56.5 20.5t-48.5 20.5zM532 640h61v-640h-59l-384 537v-537h-60v640h59l383 -536v536z" />
    <glyph glyph-name="Ograve" unicode="&#xd2;" horiz-adv-x="785" 
d="M376 738l-84 89l61 11l127 -148h-26q-18 0 -33.5 9t-44.5 39zM392.5 -11q-96.5 0 -173 45t-118 120.5t-41.5 166.5q0 141 93.5 236.5t239.5 95.5t239.5 -95.5t93.5 -236.5q0 -91 -42 -166.5t-118.5 -120.5t-173 -45zM392.5 45q118.5 0 193.5 80.5t75 195.5q0 117 -75 197
t-193.5 80t-193 -80t-74.5 -197q0 -115 74.5 -195.5t193 -80.5z" />
    <glyph glyph-name="Oacute" unicode="&#xd3;" horiz-adv-x="785" 
d="M426 738q-28 -30 -44 -39t-33 -9h-26l127 148l61 -11zM392.5 -11q-96.5 0 -173 45t-118 120.5t-41.5 166.5q0 141 93.5 236.5t239.5 95.5t239.5 -95.5t93.5 -236.5q0 -91 -42 -166.5t-118.5 -120.5t-173 -45zM392.5 45q118.5 0 193.5 80.5t75 195.5q0 117 -75 197
t-193.5 80t-193 -80t-74.5 -197q0 -115 74.5 -195.5t193 -80.5z" />
    <glyph glyph-name="Ocircumflex" unicode="&#xd4;" horiz-adv-x="785" 
d="M340 707q-17 -17 -38 -17h-40l104 110h54l104 -110h-40q-22 0 -38 17l-53 52zM393 654q146 0 239.5 -96t93.5 -236q0 -92 -42 -167.5t-118.5 -120t-173 -44.5t-173 44.5t-118 120t-41.5 167.5q0 140 93.5 236t239.5 96zM392.5 45q118.5 0 193.5 80.5t75 196.5t-75 196
t-193.5 80t-193 -80t-74.5 -196t74.5 -196.5t193 -80.5z" />
    <glyph glyph-name="Otilde" unicode="&#xd5;" horiz-adv-x="785" 
d="M447 697q-25 0 -56 20.5t-49 20.5q-30 0 -49 -36l-37 24q10 16 17 25t24.5 20t39.5 11q25 0 57.5 -20.5t50.5 -20.5q30 0 46 39l40 -21q-30 -62 -84 -62zM392.5 -11q-96.5 0 -173 45t-118 120.5t-41.5 166.5q0 141 93.5 236.5t239.5 95.5t239.5 -95.5t93.5 -236.5
q0 -91 -42 -166.5t-118.5 -120.5t-173 -45zM392.5 45q118.5 0 193.5 80.5t75 195.5q0 117 -75 197t-193.5 80t-193 -80t-74.5 -197q0 -115 74.5 -195.5t193 -80.5z" />
    <glyph glyph-name="Odieresis" unicode="&#xd6;" horiz-adv-x="785" 
d="M311.5 787q16.5 0 28.5 -12t12 -29t-12 -29t-28.5 -12t-28.5 12t-12 29t12 29t28.5 12zM473 787q17 0 29 -12t12 -29t-12 -29t-29 -12t-28.5 12t-11.5 29t11.5 29t28.5 12zM392.5 -10q-96.5 0 -173 44.5t-118 120t-41.5 167.5q0 140 93.5 236t239.5 96t239.5 -96
t93.5 -236q0 -92 -42 -167.5t-118.5 -120t-173 -44.5zM392.5 45q118.5 0 193.5 80.5t75 196.5t-75 196t-193.5 80t-193 -80t-74.5 -196t74.5 -196.5t193 -80.5z" />
    <glyph glyph-name="multiply" unicode="&#xd7;" horiz-adv-x="420" 
d="M371 411l-124 -124l124 -124l-37 -37l-124 124l-124 -124l-37 37l124 124l-124 124l37 36l124 -124l124 124z" />
    <glyph glyph-name="Oslash" unicode="&#xd8;" horiz-adv-x="785" 
d="M633 557q93 -94 93 -236q0 -91 -42 -166.5t-118.5 -120.5t-172.5 -45q-122 0 -210 70l-72 -80l-31 28l72 79q-92 95 -92 236q0 140 93.5 236t239.5 96q121 0 209 -69l72 80l31 -28zM125 322q0 -112 68 -190l369 408q-71 58 -169 58q-119 0 -193.5 -80t-74.5 -196zM393 45
q118 0 193 80.5t75 196.5q0 112 -69 190l-369 -408q71 -59 170 -59z" />
    <glyph glyph-name="Ugrave" unicode="&#xd9;" horiz-adv-x="627" 
d="M297 738l-85 89l62 11l127 -148h-26q-18 0 -34 9t-44 39zM313.5 -11q-108.5 0 -168.5 64t-60 190v397h62v-389q0 -103 43.5 -154.5t123.5 -51.5t123.5 51.5t43.5 154.5v389h62v-397q0 -126 -60.5 -190t-169 -64z" />
    <glyph glyph-name="Uacute" unicode="&#xda;" horiz-adv-x="627" 
d="M347 738q-28 -30 -44 -39t-33 -9h-26l127 148l61 -11zM313.5 -11q-108.5 0 -168.5 64t-60 190v397h62v-389q0 -103 43.5 -154.5t123 -51.5t123 51.5t43.5 154.5v389h62v-397q0 -126 -60 -190t-168.5 -64z" />
    <glyph glyph-name="Ucircumflex" unicode="&#xdb;" horiz-adv-x="627" 
d="M261 707q-17 -17 -38 -17h-41l104 110h55l104 -110h-40q-22 0 -39 17l-52 52zM481 640h62v-397q0 -126 -60.5 -189.5t-169 -63.5t-168.5 63.5t-60 189.5v397h62v-389q0 -103 43.5 -154.5t123.5 -51.5t123.5 51.5t43.5 154.5v389z" />
    <glyph glyph-name="Udieresis" unicode="&#xdc;" horiz-adv-x="627" 
d="M232.5 787q16.5 0 28.5 -12t12 -29t-12 -29t-28.5 -12t-28.5 12t-12 29t12 29t28.5 12zM394 787q17 0 29 -12t12 -29t-12 -29t-29 -12t-28.5 12t-11.5 29t11.5 29t28.5 12zM313.5 -10q-108.5 0 -168.5 63.5t-60 189.5v397h62v-389q0 -103 43.5 -154.5t123 -51.5t123 51.5
t43.5 154.5v389h62v-397q0 -126 -60 -189.5t-168.5 -63.5z" />
    <glyph glyph-name="Yacute" unicode="&#xdd;" horiz-adv-x="508" 
d="M288 738q-28 -30 -44 -39t-33 -9h-26l126 148l62 -11zM508 640l-223 -336v-304h-62v304l-223 336h73l181 -277l181 277h73z" />
    <glyph glyph-name="Thorn" unicode="&#xde;" horiz-adv-x="501" 
d="M265 514q46 0 87 -19t70.5 -61.5t29.5 -100.5t-29.5 -100.5t-70.5 -61.5t-87 -19l-113 -1v-151h-62v639l62 1v-125zM239 201q69 -1 108.5 34t39.5 98t-39.5 98t-108.5 34l-87 -1v-262z" />
    <glyph glyph-name="germandbls" unicode="&#xdf;" horiz-adv-x="546" 
d="M230 -4l-9 57q91 -13 146 21.5t56 108.5q1 49 -25.5 83t-64 48t-79.5 14h-33v50h33q56 0 94 36t38 95q-1 51 -36 80.5t-79 29.5q-59 0 -90 -45t-31 -121v-453h-60v453q0 60 15 103.5t41.5 68.5t59 36.5t71.5 11.5q70 0 119.5 -45t49.5 -116q0 -63 -32.5 -102.5
t-72.5 -52.5q62 -13 104 -57t42 -115q0 -103 -72 -153.5t-185 -35.5z" />
    <glyph glyph-name="agrave" unicode="&#xe0;" 
d="M336 524q-17 0 -33 9t-44 39l-85 89l62 11l126 -148h-26zM424 447h49v-447h-49l-8 84q-27 -45 -70 -69.5t-98 -24.5q-90 0 -149 64t-59 168.5t59 169t148 64.5q56 0 99 -25t70 -70zM260 41q71 0 116 52t45 130t-45 129.5t-117 51.5q-70 0 -114 -51.5t-44 -129.5
t44.5 -130t114.5 -52z" />
    <glyph glyph-name="aacute" unicode="&#xe1;" 
d="M309 572q-28 -30 -44 -39t-33 -9h-26l126 148l62 -11zM424 447h49v-447h-49l-8 84q-27 -45 -70 -70t-98 -25q-90 0 -149 64.5t-59 169t59 169t148 64.5q56 0 99 -25t70 -70zM260 41q71 0 116 52t45 130t-45 129.5t-117 51.5q-70 0 -114 -51.5t-44 -129.5t44.5 -130
t114.5 -52z" />
    <glyph glyph-name="acircumflex" unicode="&#xe2;" 
d="M222 541q-16 -17 -38 -17h-40l104 110h54l104 -110h-40q-21 0 -38 17l-53 52zM424 447h49v-447h-49l-8 84q-27 -45 -70 -69.5t-98 -24.5q-90 0 -149 64t-59 168.5t59 169t148 64.5q56 0 99 -25t70 -70zM260 41q71 0 116 52t45 130t-45 129.5t-117 51.5q-70 0 -114 -51.5
t-44 -129.5t44.5 -130t114.5 -52z" />
    <glyph glyph-name="atilde" unicode="&#xe3;" 
d="M225 572q-30 0 -50 -36l-37 24q11 16 18 25t24.5 20t38.5 11q26 0 58.5 -20.5t50.5 -20.5q29 0 46 39l39 -21q-29 -62 -83 -62q-26 0 -56.5 20.5t-48.5 20.5zM424 447h49v-447h-49l-8 84q-27 -45 -70 -70t-98 -25q-90 0 -149 64.5t-59 169t59 169t148 64.5q56 0 99 -25
t70 -70zM260 41q71 0 116 52t45 130t-45 129.5t-117 51.5q-70 0 -114 -51.5t-44 -129.5t44.5 -130t114.5 -52z" />
    <glyph glyph-name="adieresis" unicode="&#xe4;" 
d="M194 539q-17 0 -28.5 12t-11.5 29t11.5 29t28.5 12t29 -12t12 -29t-12 -29t-29 -12zM356 539q-17 0 -28.5 12t-11.5 29t11.5 29t28.5 12t29 -12t12 -29t-12 -29t-29 -12zM424 447h49v-447h-49l-8 84q-27 -45 -70 -69.5t-98 -24.5q-90 0 -149 64t-59 168.5t59 169
t148 64.5q56 0 99 -25t70 -70zM260 41q71 0 116 52t45 130t-45 129.5t-117 51.5q-70 0 -114 -51.5t-44 -129.5t44.5 -130t114.5 -52z" />
    <glyph glyph-name="aring" unicode="&#xe5;" 
d="M275.5 508q-41.5 0 -71 28.5t-29.5 69t29.5 69t71 28.5t71 -28.5t29.5 -69t-29.5 -69t-71 -28.5zM275.5 662q-24.5 0 -42 -16.5t-17.5 -40t17.5 -40t42 -16.5t41.5 16.5t17 40t-17 40t-41.5 16.5zM424 447h49v-447h-49l-8 84q-27 -45 -70 -69.5t-98 -24.5q-90 0 -149 64
t-59 168.5t59 169t148 64.5q56 0 99 -25t70 -70zM260 41q71 0 116 52t45 130t-45 129.5t-117 51.5q-70 0 -114 -51.5t-44 -129.5t44.5 -130t114.5 -52z" />
    <glyph glyph-name="ae" unicode="&#xe6;" horiz-adv-x="891" 
d="M856 242v-25h-366q2 -76 46.5 -126t119.5 -50q87 0 135 58l43 -35q-29 -35 -75.5 -54.5t-102.5 -19.5q-113 0 -178 81v-71h-49l-8 84q-27 -45 -70 -69.5t-98 -24.5q-90 0 -149 64t-59 168.5t59 169t148 64.5q56 0 99 -25t70 -70l8 86h49v-71q64 80 169 80q93 0 151 -61.5
t58 -152.5zM647 405q-61 0 -102.5 -40.5t-51.5 -104.5h304q-5 66 -45.5 105.5t-104.5 39.5zM265 41q71 0 116 52t45 130t-45 129.5t-117 51.5q-70 0 -114 -51.5t-44 -129.5t44.5 -130t114.5 -52z" />
    <glyph glyph-name="ccedilla" unicode="&#xe7;" horiz-adv-x="435" 
d="M413 40q-60 -49 -143 -51l-31 -45q2 1 6.5 2.5t18 4t27.5 1.5q28 -3 46.5 -20.5t17.5 -48.5t-29.5 -51t-76.5 -20q-25 0 -47.5 5t-32.5 11l-10 5l17 33q24 -16 66 -18q32 -1 47 11t15 29q-1 27 -32.5 32.5t-57.5 -8.5l-21 18l41 62q-87 11 -140.5 76t-53.5 155
q0 98 63 165.5t163 67.5q86 0 147 -50l-36 -42q-44 41 -111 41q-75 0 -120 -52t-45 -130.5t45 -130t120 -51.5q67 0 111 41z" />
    <glyph glyph-name="egrave" unicode="&#xe8;" horiz-adv-x="508" 
d="M320 524q-17 0 -33 9t-44 39l-85 89l62 11l126 -148h-26zM469 242v-25h-367q2 -76 46.5 -126t119.5 -50q88 0 136 58l42 -35q-29 -35 -75.5 -54.5t-102.5 -19.5q-102 0 -165 67.5t-63 167.5q0 97 62 164t157 67q93 0 151.5 -61.5t58.5 -152.5zM259 405
q-61 0 -102.5 -40.5t-51.5 -104.5h305q-6 66 -46.5 105.5t-104.5 39.5z" />
    <glyph glyph-name="eacute" unicode="&#xe9;" horiz-adv-x="508" 
d="M293 572q-28 -30 -44 -39t-33 -9h-26l127 148l61 -11zM469 242v-25h-367q2 -76 46.5 -126t119.5 -50q88 0 136 58l42 -35q-29 -35 -75.5 -55t-102.5 -20q-102 0 -165 68t-63 168q0 97 62 164t157 67q93 0 151.5 -61.5t58.5 -152.5zM259 405q-61 0 -102.5 -40.5
t-51.5 -104.5h305q-6 66 -46.5 105.5t-104.5 39.5z" />
    <glyph glyph-name="ecircumflex" unicode="&#xea;" horiz-adv-x="508" 
d="M207 541q-17 -17 -39 -17h-40l104 110h55l104 -110h-41q-21 0 -38 17l-53 52zM469 242v-25h-367q2 -76 46.5 -126t119.5 -50q88 0 136 58l42 -35q-29 -35 -75.5 -54.5t-102.5 -19.5q-102 0 -165 67.5t-63 167.5q0 97 62 164t157 67q93 0 151.5 -61.5t58.5 -152.5z
M259 405q-61 0 -102.5 -40.5t-51.5 -104.5h305q-6 66 -46.5 105.5t-104.5 39.5z" />
    <glyph glyph-name="edieresis" unicode="&#xeb;" horiz-adv-x="508" 
d="M178 539q-17 0 -28.5 12t-11.5 29t11.5 29t28.5 12t29 -12t12 -29t-12 -29t-29 -12zM340 539q-17 0 -28.5 12t-11.5 29t11.5 29t28.5 12t29 -12t12 -29t-12 -29t-29 -12zM469 242v-25h-367q2 -76 46.5 -126t119.5 -50q88 0 136 58l42 -35q-29 -35 -75.5 -54.5
t-102.5 -19.5q-102 0 -165 67.5t-63 167.5q0 97 62 164t157 67q93 0 151.5 -61.5t58.5 -152.5zM259 405q-61 0 -102.5 -40.5t-51.5 -104.5h305q-6 66 -46.5 105.5t-104.5 39.5z" />
    <glyph glyph-name="igrave" unicode="&#xec;" horiz-adv-x="207" 
d="M87 572l-85 89l62 11l127 -148h-26q-18 0 -33.5 9t-44.5 39zM75 0v444h58v-444h-58z" />
    <glyph glyph-name="iacute" unicode="&#xed;" horiz-adv-x="207" 
d="M137 572q-28 -30 -44 -39t-33 -9h-26l127 148l61 -11zM75 0v444h58v-444h-58z" />
    <glyph glyph-name="icircumflex" unicode="&#xee;" horiz-adv-x="207" 
d="M131 634l104 -110h-40q-22 0 -38 17l-53 52l-53 -52q-17 -17 -38 -17h-40l104 110h54zM75 0v444h58v-444h-58z" />
    <glyph glyph-name="idieresis" unicode="&#xef;" horiz-adv-x="207" 
d="M22.5 621q16.5 0 28.5 -12t12 -29t-12 -29t-28.5 -12t-28.5 12t-12 29t12 29t28.5 12zM184 621q17 0 29 -12t12 -29t-12 -29t-29 -12t-28.5 12t-11.5 29t11.5 29t28.5 12zM75 0v444h58v-444h-58z" />
    <glyph glyph-name="eth" unicode="&#xf0;" horiz-adv-x="530" 
d="M296 569q99 -102 147 -186t48 -168q0 -96 -63.5 -161.5t-162 -65.5t-162 65.5t-63.5 161.5t63 161.5t162 65.5q50 0 83 -21q-44 55 -108 120l-100 -48l-30 30l100 49q-26 25 -64 62l52 30q38 -35 68 -65l95 46l34 -28zM265 40q74 0 119 50t45 125.5t-45 125t-119 49.5
t-119 -49.5t-45 -125.5q0 -75 45.5 -125t118.5 -50z" />
    <glyph glyph-name="ntilde" unicode="&#xf1;" horiz-adv-x="515" 
d="M211 572q-30 0 -50 -36l-36 24q10 16 17 25t24.5 20t38.5 11q26 0 58.5 -20.5t50.5 -20.5q30 0 46 39l39 -21q-29 -62 -83 -62q-26 0 -56.5 20.5t-48.5 20.5zM279 456q31 0 59 -9.5t53 -29.5t40 -58.5t15 -89.5v-269h-60v258q0 70 -30.5 108t-88.5 38q-53 0 -90.5 -38.5
t-42.5 -115.5v-250h-59v444h52l7 -82v-6q19 51 57.5 75.5t87.5 24.5z" />
    <glyph glyph-name="ograve" unicode="&#xf2;" horiz-adv-x="544" 
d="M256 572l-85 89l61 11l127 -148h-26q-17 0 -33 9t-44 39zM272 -11q-101 0 -166.5 67.5t-65.5 166t65.5 166t166.5 67.5t167 -67.5t66 -166t-66 -166t-167 -67.5zM272 41q74 0 122 52.5t48 129t-48 129t-122 52.5t-122 -52.5t-48 -129t48 -129t122 -52.5z" />
    <glyph glyph-name="oacute" unicode="&#xf3;" horiz-adv-x="544" 
d="M306 572q-28 -30 -44 -39t-33 -9h-26l126 148l62 -11zM272 -11q-101 0 -166.5 67.5t-65.5 166t65.5 166t166.5 67.5t167 -67.5t66 -166t-66 -166t-167 -67.5zM272 41q74 0 122 52.5t48 129t-48 129t-122 52.5t-122 -52.5t-48 -129t48 -129t122 -52.5z" />
    <glyph glyph-name="ocircumflex" unicode="&#xf4;" horiz-adv-x="544" 
d="M219 541q-17 -17 -38 -17h-40l104 110h54l104 -110h-40q-21 0 -38 17l-53 52zM272 456q101 0 167 -67.5t66 -166t-66 -165.5t-167 -67t-166.5 67t-65.5 165.5t65.5 166t166.5 67.5zM272 42q74 0 122 52t48 128.5t-48 129t-122 52.5t-122 -52.5t-48 -129t48 -128.5
t122 -52z" />
    <glyph glyph-name="otilde" unicode="&#xf5;" horiz-adv-x="544" 
d="M327 531q-26 0 -56.5 20.5t-48.5 20.5q-31 0 -50 -36l-37 24q10 16 17 25t25 20t39 11q26 0 58.5 -20.5t50.5 -20.5q29 0 45 39l40 -21q-29 -62 -83 -62zM272 -11q-101 0 -166.5 67.5t-65.5 166t65.5 166t166.5 67.5t167 -67.5t66 -166t-66 -166t-167 -67.5zM272 41
q74 0 122 52.5t48 129t-48 129t-122 52.5t-122 -52.5t-48 -129t48 -129t122 -52.5z" />
    <glyph glyph-name="odieresis" unicode="&#xf6;" horiz-adv-x="544" 
d="M191 621q17 0 29 -12t12 -29t-12 -29t-29 -12t-28.5 12t-11.5 29t11.5 29t28.5 12zM352.5 621q16.5 0 28.5 -12t12 -29t-12 -29t-28.5 -12t-28.5 12t-12 29t12 29t28.5 12zM272 -10q-101 0 -166.5 67t-65.5 165.5t65.5 166t166.5 67.5t167 -67.5t66 -166t-66 -165.5
t-167 -67zM272 42q74 0 122 52t48 128.5t-48 129t-122 52.5t-122 -52.5t-48 -129t48 -128.5t122 -52z" />
    <glyph glyph-name="divide" unicode="&#xf7;" horiz-adv-x="501" 
d="M250.5 388q-17.5 0 -30 12.5t-12.5 30t12.5 29.5t30 12t29.5 -12t12 -29.5t-12 -30t-29.5 -12.5zM49 260v52h403v-52h-403zM250.5 101q-17.5 0 -30 12t-12.5 29.5t12.5 30t30 12.5t29.5 -12.5t12 -30t-12 -29.5t-29.5 -12z" />
    <glyph glyph-name="oslash" unicode="&#xf8;" horiz-adv-x="544" 
d="M442 386q63 -66 63 -163q0 -99 -65.5 -166.5t-167.5 -67.5q-84 0 -145 48l-53 -59l-25 22l53 59q-62 66 -62 164t65 165.5t167 67.5q84 0 145 -48l53 59l25 -22zM101 223q0 -71 40 -121l238 264q-44 38 -107 38q-75 0 -123 -52t-48 -129zM272 41q75 0 122.5 52t47.5 130
q0 70 -39 119l-239 -263q46 -38 108 -38z" />
    <glyph glyph-name="ugrave" unicode="&#xf9;" horiz-adv-x="510" 
d="M239 572l-85 89l61 11l127 -148h-26q-17 0 -33 9t-44 39zM255 -12q-35 0 -66 9.5t-59 30.5t-44 60.5t-16 93.5v262h59v-262q0 -67 33 -104.5t93 -37.5t93 37.5t33 104.5v262h59v-262q0 -54 -16 -93.5t-44 -60.5t-59 -30.5t-66 -9.5z" />
    <glyph glyph-name="uacute" unicode="&#xfa;" horiz-adv-x="510" 
d="M289 572q-29 -30 -44.5 -39t-33.5 -9h-26l127 148l61 -11zM255 -12q-35 0 -66 9.5t-59 30.5t-44 60.5t-16 93.5v262h59v-262q0 -67 33 -104.5t93 -37.5t93 37.5t33 104.5v262h59v-262q0 -54 -16 -93.5t-44 -60.5t-59 -30.5t-66 -9.5z" />
    <glyph glyph-name="ucircumflex" unicode="&#xfb;" horiz-adv-x="510" 
d="M202 541q-17 -17 -38 -17h-40l104 110h54l104 -110h-40q-22 0 -38 17l-53 52zM381 444h59v-262q0 -54 -16 -93.5t-44 -60.5t-59 -30.5t-66 -9.5t-66 9.5t-59 30.5t-44 60.5t-16 93.5v262h59v-262q0 -66 33 -104t93 -38t93 38t33 104v262z" />
    <glyph glyph-name="udieresis" unicode="&#xfc;" horiz-adv-x="510" 
d="M174 621q17 0 29 -12t12 -29t-12 -29t-29 -12t-28.5 12t-11.5 29t11.5 29t28.5 12zM335 621q17 0 29 -12t12 -29t-12 -29t-29 -12t-28.5 12t-11.5 29t11.5 29t28.5 12zM255 -12q-35 0 -66 9.5t-59 30.5t-44 60.5t-16 93.5v262h59v-262q0 -67 33 -104.5t93 -37.5t93 37.5
t33 104.5v262h59v-262q0 -54 -16 -93.5t-44 -60.5t-59 -30.5t-66 -9.5z" />
    <glyph glyph-name="yacute" unicode="&#xfd;" horiz-adv-x="442" 
d="M254 572q-28 -30 -44 -39t-33 -9h-26l127 148l61 -11zM373 444h64l-281 -654h-62l96 220l-185 434h64l152 -364z" />
    <glyph glyph-name="thorn" unicode="&#xfe;" 
d="M300 456q90 0 149 -64.5t59 -169t-59 -169t-149 -64.5q-54 0 -96.5 24t-69.5 67v-270h-59v830h59v-275q27 43 69.5 67t96.5 24zM288 41q70 0 114.5 52t44.5 130t-44.5 129.5t-113.5 51.5q-72 0 -117 -51.5t-45 -129.5t45 -130t116 -52z" />
    <glyph glyph-name="ydieresis" unicode="&#xff;" horiz-adv-x="442" 
d="M139.5 539q-16.5 0 -28.5 12t-12 29t12 29t28.5 12t28.5 -12t12 -29t-12 -29t-28.5 -12zM301 539q-17 0 -28.5 12t-11.5 29t11.5 29t28.5 12t29 -12t12 -29t-12 -29t-29 -12zM373 444h64l-281 -654h-62l96 220l-185 434h64l152 -364z" />
    <glyph glyph-name="Amacron" unicode="&#x100;" horiz-adv-x="589" 
d="M415 765v-40h-241v40h241zM513 0l-77 200l-283 -1l-77 -199h-66l254 640h61l255 -640h-67zM170 244h249l-124 323z" />
    <glyph glyph-name="amacron" unicode="&#x101;" 
d="M396 599v-40h-241v40h241zM424 447h49v-447h-49l-8 84q-27 -45 -70 -69.5t-98 -24.5q-90 0 -149 64t-59 168.5t59 169t148 64.5q56 0 99 -25t70 -70zM260 41q71 0 116 52t45 130t-45 129.5t-117 51.5q-70 0 -114 -51.5t-44 -129.5t44.5 -130t114.5 -52z" />
    <glyph glyph-name="Abreve" unicode="&#x102;" horiz-adv-x="589" 
d="M295 690q-58 0 -92.5 29.5t-37.5 76.5h44q3 -27 24.5 -46t61.5 -19q39 0 61 19t25 46h43q-2 -47 -36.5 -76.5t-92.5 -29.5zM513 0l-77 200l-283 -1l-77 -199h-66l254 640h61l255 -640h-67zM170 244h249l-124 323z" />
    <glyph glyph-name="abreve" unicode="&#x103;" 
d="M275 524q-58 0 -92.5 29.5t-36.5 76.5h44q3 -27 24.5 -46t60.5 -19q40 0 61.5 19t25.5 46h43q-2 -47 -36.5 -76.5t-93.5 -29.5zM424 447h49v-447h-49l-8 84q-27 -45 -70 -69.5t-98 -24.5q-90 0 -149 64t-59 168.5t59 169t148 64.5q56 0 99 -25t70 -70zM260 41
q71 0 116 52t45 130t-45 129.5t-117 51.5q-70 0 -114 -51.5t-44 -129.5t44.5 -130t114.5 -52z" />
    <glyph glyph-name="Aogonek" unicode="&#x104;" horiz-adv-x="589" 
d="M568 -120l12 -35q-33 -23 -75.5 -17t-58.5 39q-15 34 3.5 69.5t63.5 63.5l-77 200l-283 -1l-77 -199h-66l254 640h61l255 -640h-12l-20 -12q-60 -34 -62 -78q-2 -31 29 -39q22 -5 53 9zM170 244h249l-124 323z" />
    <glyph glyph-name="aogonek" unicode="&#x105;" 
d="M472 -120l12 -35q-33 -23 -76 -17t-58 39q-16 35 4.5 72.5t69.5 64.5l-8 80q-27 -45 -70 -69.5t-98 -24.5q-90 0 -149 64t-59 168.5t59 169t148 64.5q56 0 99 -25t70 -70l8 86h49v-447h-2l-20 -12q-59 -34 -61 -78q-2 -31 29 -39q22 -5 53 9zM260 41q71 0 116 52t45 130
t-45 129.5t-117 51.5q-70 0 -114 -51.5t-44 -129.5t44 -130t115 -52z" />
    <glyph glyph-name="Cacute" unicode="&#x106;" horiz-adv-x="621" 
d="M406 738q-28 -30 -44 -39t-33 -9h-26l127 148l61 -11zM389 -11q-144 0 -236.5 95.5t-92.5 236.5t92.5 236.5t236.5 95.5q109 0 193 -56l-35 -50q-66 51 -158 51q-117 0 -190.5 -80.5t-73.5 -196.5t73.5 -196.5t190.5 -80.5q92 0 158 51l35 -50q-84 -56 -193 -56z" />
    <glyph glyph-name="cacute" unicode="&#x107;" horiz-adv-x="435" 
d="M290 572q-28 -30 -44 -39t-33 -9h-26l127 148l61 -11zM266 -11q-100 0 -163 67.5t-63 166t63 166t163 67.5q86 0 147 -50l-36 -42q-44 41 -111 41q-75 0 -120 -52t-45 -130.5t45 -130t120 -51.5q67 0 111 41l36 -42q-61 -51 -147 -51z" />
    <glyph glyph-name="Ccircumflex" unicode="&#x108;" horiz-adv-x="621" 
d="M320 707q-17 -17 -38 -17h-41l105 110h54l104 -110h-40q-22 0 -39 17l-52 52zM389 44q92 0 159 51l34 -50q-84 -56 -193 -56q-144 0 -236.5 95.5t-92.5 236.5t92.5 236.5t236.5 95.5q109 0 193 -56l-34 -50q-67 51 -159 51q-117 0 -190.5 -80.5t-73.5 -196t73.5 -196.5
t190.5 -81z" />
    <glyph glyph-name="ccircumflex" unicode="&#x109;" horiz-adv-x="435" 
d="M204 541q-17 -17 -38 -17h-41l104 110h55l104 -110h-41q-21 0 -38 17l-52 52zM266 41q67 0 111 41l36 -42q-61 -51 -147 -51q-100 0 -163 67.5t-63 166t63 166t163 67.5q86 0 147 -50l-36 -42q-44 41 -111 41q-75 0 -120 -52t-45 -130.5t45 -130t120 -51.5z" />
    <glyph glyph-name="Cdotaccent" unicode="&#x10a;" horiz-adv-x="621" 
d="M373 708q-19 0 -32.5 13.5t-13.5 32.5t13.5 32.5t32.5 13.5t32 -13.5t13 -32.5t-13 -32.5t-32 -13.5zM389 -11q-144 0 -236.5 95.5t-92.5 236.5t92.5 236.5t236.5 95.5q109 0 193 -56l-35 -50q-66 51 -158 51q-117 0 -190.5 -80.5t-73.5 -196t73.5 -196.5t190.5 -81
q92 0 158 51l35 -50q-84 -56 -193 -56z" />
    <glyph glyph-name="cdotaccent" unicode="&#x10b;" horiz-adv-x="435" 
d="M256.5 542q-18.5 0 -32 13.5t-13.5 32.5t13.5 32.5t32 13.5t32 -13.5t13.5 -32.5t-13.5 -32.5t-32 -13.5zM266 -10q-100 0 -163 67t-63 165.5t63 166t163 67.5q86 0 147 -50l-36 -42q-44 41 -111 41q-75 0 -120 -52t-45 -130.5t45 -130t120 -51.5q67 0 111 41l36 -42
q-61 -50 -147 -50z" />
    <glyph glyph-name="Ccaron" unicode="&#x10c;" horiz-adv-x="621" 
d="M400 691h-54l-104 109h40q21 0 38 -17l53 -52l53 52q16 17 38 17h40zM389 44q92 0 158 51l35 -50q-84 -56 -193 -56q-144 0 -236.5 95.5t-92.5 236.5t92.5 236.5t236.5 95.5q109 0 193 -56l-35 -50q-66 51 -158 51q-117 0 -190.5 -80.5t-73.5 -196t73.5 -196.5t190.5 -81
z" />
    <glyph glyph-name="ccaron" unicode="&#x10d;" horiz-adv-x="435" 
d="M284 525h-54l-104 109h40q21 0 38 -17l53 -52l53 52q16 17 38 17h40zM266 41q67 0 111 41l36 -42q-61 -51 -147 -51q-100 0 -163 67.5t-63 166t63 166t163 67.5q86 0 147 -50l-36 -42q-44 41 -111 41q-75 0 -120 -52t-45 -130.5t45 -130t120 -51.5z" />
    <glyph glyph-name="Dcaron" unicode="&#x10e;" horiz-adv-x="653" 
d="M318 691h-54l-104 109h40q21 0 38 -17l53 -52l53 52q17 17 38 17h40zM248 640q83 0 150 -25t109 -68.5t64.5 -101t22.5 -125t-22.5 -125t-64.5 -101.5t-109 -69t-150 -25h-158v640h158zM237 50q139 0 215.5 71.5t76.5 198.5q0 128 -76.5 199t-215.5 71h-85v-540h85z" />
    <glyph glyph-name="dcaron" unicode="&#x10f;" horiz-adv-x="555" 
d="M414 365v315h59v-680h-49l-8 85q-26 -45 -69.5 -70t-98.5 -25q-90 0 -149 64t-59 168.5t59 169t148 64.5q54 0 97 -24t70 -67zM577 667q21 0 33.5 -18t11.5 -43q-1 -33 -21.5 -64t-62.5 -46l-10 24q28 15 42.5 36t14.5 42q-16 -7 -31.5 2t-15.5 29q0 16 10.5 27t28.5 11z
M260 41q71 0 116 52t45 130t-45 129.5t-117 51.5q-70 0 -114 -51.5t-44 -129.5t44.5 -130t114.5 -52z" />
    <glyph glyph-name="Dcroat" unicode="&#x110;" horiz-adv-x="653" 
d="M248 640q83 0 150 -25t109 -68.5t64.5 -101t22.5 -125t-22.5 -125t-64.5 -101.5t-109 -69t-150 -25h-158v301h-62v42h62v297h158zM237 50q139 0 215.5 71.5t76.5 198.5q0 128 -76.5 199t-215.5 71h-85v-247h139v-42h-139v-251h85z" />
    <glyph glyph-name="dcroat" unicode="&#x111;" horiz-adv-x="547" 
d="M522 568v-42h-49v-526h-49l-8 85q-27 -45 -70.5 -70t-98.5 -25q-89 0 -148.5 64t-59.5 168.5t59.5 169t148.5 64.5q54 0 96.5 -24t69.5 -67v161h-154v42h154v112h60v-112h49zM259 41q71 0 116.5 52t45.5 130t-45.5 129.5t-116.5 51.5q-70 0 -114.5 -51.5t-44.5 -129.5
t44.5 -130t114.5 -52z" />
    <glyph glyph-name="Emacron" unicode="&#x112;" horiz-adv-x="509" 
d="M387 765v-40h-241v40h241zM450 586h-298v-240h248v-52h-248v-240h298v-54h-360v640h360v-54z" />
    <glyph glyph-name="emacron" unicode="&#x113;" horiz-adv-x="508" 
d="M380 599v-40h-241v40h241zM469 242v-25h-367q2 -76 46.5 -126t119.5 -50q88 0 136 58l42 -35q-29 -35 -75.5 -54.5t-102.5 -19.5q-102 0 -165 67.5t-63 167.5q0 97 62 164t157 67q93 0 151.5 -61.5t58.5 -152.5zM259 405q-61 0 -102.5 -40.5t-51.5 -104.5h305
q-6 66 -46.5 105.5t-104.5 39.5z" />
    <glyph glyph-name="Ebreve" unicode="&#x114;" horiz-adv-x="509" 
d="M267 690q-59 0 -93 29.5t-37 76.5h44q3 -27 24.5 -46t61.5 -19q39 0 61 19t25 46h43q-2 -47 -36.5 -76.5t-92.5 -29.5zM450 586h-298v-240h248v-52h-248v-240h298v-54h-360v640h360v-54z" />
    <glyph glyph-name="ebreve" unicode="&#x115;" horiz-adv-x="508" 
d="M259 524q-58 0 -92.5 29.5t-36.5 76.5h44q3 -27 24.5 -46t60.5 -19q40 0 61.5 19t25.5 46h43q-2 -47 -36.5 -76.5t-93.5 -29.5zM469 242v-25h-367q2 -76 46.5 -126t119.5 -50q88 0 136 58l42 -35q-29 -35 -75.5 -54.5t-102.5 -19.5q-102 0 -165 67.5t-63 167.5
q0 97 62 164t157 67q93 0 151.5 -61.5t58.5 -152.5zM259 405q-61 0 -102.5 -40.5t-51.5 -104.5h305q-6 66 -46.5 105.5t-104.5 39.5z" />
    <glyph glyph-name="Edotaccent" unicode="&#x116;" horiz-adv-x="509" 
d="M266.5 708q-18.5 0 -32 13.5t-13.5 32.5t13.5 32.5t32 13.5t32 -13.5t13.5 -32.5t-13.5 -32.5t-32 -13.5zM450 586h-298v-240h248v-52h-248v-240h298v-54h-360v640h360v-54z" />
    <glyph glyph-name="edotaccent" unicode="&#x117;" horiz-adv-x="508" 
d="M259 542q-19 0 -32 13.5t-13 32.5t13 32.5t32 13.5t32.5 -13.5t13.5 -32.5t-13.5 -32.5t-32.5 -13.5zM469 242v-25h-367q2 -76 46.5 -126t119.5 -50q88 0 136 58l42 -35q-29 -35 -75.5 -54.5t-102.5 -19.5q-102 0 -165 67.5t-63 167.5q0 97 62 164t157 67
q93 0 151.5 -61.5t58.5 -152.5zM259 405q-61 0 -102.5 -40.5t-51.5 -104.5h305q-6 66 -46.5 105.5t-104.5 39.5z" />
    <glyph glyph-name="Eogonek" unicode="&#x118;" horiz-adv-x="509" 
d="M449 -120l12 -34q-33 -24 -75.5 -18t-58.5 39q-15 34 3.5 69.5t63.5 63.5h-304v640h360v-54h-298v-240h248v-52h-248v-240h298v-54h-1l-20 -12q-60 -34 -62 -78q-2 -31 29 -39q22 -5 53 9z" />
    <glyph glyph-name="eogonek" unicode="&#x119;" horiz-adv-x="508" 
d="M469 242v-25h-367q2 -76 46.5 -126t119.5 -50q88 0 136 58l42 -35q-41 -49 -111 -66l-16 -10q-59 -35 -62 -78q-1 -31 29 -39q23 -5 53 9l12 -35q-32 -23 -75 -17t-58 39q-15 30 -0.5 63t51.5 60h-1q-102 0 -165 67.5t-63 167.5q0 97 62 164t157 67q93 0 151.5 -61.5
t58.5 -152.5zM259 405q-61 0 -102.5 -40.5t-51.5 -104.5h305q-6 66 -46.5 105.5t-104.5 39.5z" />
    <glyph glyph-name="Ecaron" unicode="&#x11a;" horiz-adv-x="509" 
d="M294 691h-54l-104 109h40q21 0 38 -17l53 -52l53 52q16 17 38 17h40zM450 586h-298v-240h248v-52h-248v-240h298v-54h-360v640h360v-54z" />
    <glyph glyph-name="ecaron" unicode="&#x11b;" horiz-adv-x="508" 
d="M287 525h-55l-104 109h41q21 0 38 -17l53 -52l52 52q17 17 39 17h40zM469 242v-25h-367q2 -76 46.5 -126t119.5 -50q88 0 136 58l42 -35q-29 -35 -75.5 -55t-102.5 -20q-102 0 -165 68t-63 168q0 97 62 164t157 67q93 0 151.5 -61.5t58.5 -152.5zM259 405
q-61 0 -102.5 -40.5t-51.5 -104.5h305q-6 66 -46.5 105.5t-104.5 39.5z" />
    <glyph glyph-name="Gcircumflex" unicode="&#x11c;" horiz-adv-x="746" 
d="M325 707q-17 -17 -38 -17h-40l104 110h54l104 -110h-40q-22 0 -38 17l-53 52zM435 337h259v-46q0 -58 -19.5 -111.5t-56 -96.5t-95 -68t-131.5 -25q-98 0 -174.5 44.5t-117 120t-40.5 168.5q0 141 92 236t240 95q36 0 69 -6t55.5 -14.5t39.5 -17t25 -13.5l8 -6l-34 -49
q-21 18 -63.5 34t-99.5 16q-121 0 -194 -79.5t-73 -195.5q0 -117 73.5 -197.5t193.5 -80.5q106 0 172.5 65.5t65.5 173.5h-195v53z" />
    <glyph glyph-name="gcircumflex" unicode="&#x11d;" 
d="M225 542q-17 -17 -38 -17h-40l104 110h54l104 -110h-40q-22 0 -38 17l-53 52zM425 444h48v-428q0 -108 -50.5 -167t-150.5 -59q-54 0 -96 15l15 53q37 -16 80 -16q72 0 107.5 45t35.5 128v65q-27 -43 -69.5 -66.5t-96.5 -23.5q-90 0 -149 64t-59 168.5t59 169t148 64.5
q56 0 99.5 -25.5t69.5 -69.5zM260 41q71 0 116 52t45 130t-45 129.5t-117 51.5q-70 0 -114 -51.5t-44 -129.5t44.5 -130t114.5 -52z" />
    <glyph glyph-name="Gbreve" unicode="&#x11e;" horiz-adv-x="746" 
d="M378 690q-58 0 -92.5 29.5t-36.5 76.5h43q3 -27 25 -46t61 -19t61 19t25 46h44q-3 -47 -37.5 -76.5t-92.5 -29.5zM435 337h259v-46q0 -59 -19.5 -112t-56 -96t-95 -68t-131.5 -25q-98 0 -174.5 44.5t-117 120t-40.5 168.5q0 141 92 236t240 95q36 0 69 -6t55.5 -14.5
t39.5 -17t25 -13.5l8 -6l-34 -49q-21 18 -63.5 34t-99.5 16q-121 0 -194 -79.5t-73 -196.5q0 -116 73.5 -196.5t193.5 -80.5q106 0 172.5 65.5t65.5 173.5h-195v53z" />
    <glyph glyph-name="gbreve" unicode="&#x11f;" 
d="M278 525q-58 0 -92.5 29.5t-36.5 76.5h43q3 -27 25 -46t61 -19t61 19.5t25 45.5h44q-3 -47 -37.5 -76.5t-92.5 -29.5zM425 444h48v-428q0 -108 -50.5 -167t-150.5 -59q-54 0 -96 15l15 53q37 -16 80 -16q72 0 107.5 45t35.5 128v65q-27 -43 -69.5 -66.5t-96.5 -23.5
q-90 0 -149 64t-59 168.5t59 169t148 64.5q56 0 99.5 -25.5t69.5 -69.5zM260 41q71 0 116 52t45 130t-45 129.5t-117 51.5q-70 0 -114 -51.5t-44 -129.5t44.5 -130t114.5 -52z" />
    <glyph glyph-name="Gdotaccent" unicode="&#x120;" horiz-adv-x="746" 
d="M378 708q-19 0 -32.5 13.5t-13.5 32.5t13.5 32.5t32.5 13.5t32 -13.5t13 -32.5t-13 -32.5t-32 -13.5zM435 337h259v-46q0 -59 -19.5 -112t-56 -96t-95 -68t-131.5 -25q-98 0 -174.5 44.5t-117 120t-40.5 168.5q0 141 92 236t240 95q36 0 69 -6t55.5 -14.5t39.5 -17
t25 -13.5l8 -6l-34 -49q-21 18 -63.5 34t-99.5 16q-121 0 -194 -79.5t-73 -196.5q0 -116 73.5 -196.5t193.5 -80.5q106 0 172.5 65.5t65.5 173.5h-195v53z" />
    <glyph glyph-name="gdotaccent" unicode="&#x121;" 
d="M278 543q-19 0 -32.5 13.5t-13.5 32.5t13.5 32.5t32.5 13.5t32 -13.5t13 -32.5t-13 -32.5t-32 -13.5zM425 444h48v-428q0 -108 -50.5 -167t-150.5 -59q-54 0 -96 15l15 53q37 -16 80 -16q72 0 107.5 45t35.5 128v65q-27 -43 -69.5 -66.5t-96.5 -23.5q-90 0 -149 64
t-59 168.5t59 169t148 64.5q56 0 99.5 -25.5t69.5 -69.5zM260 41q71 0 116 52t45 130t-45 129.5t-117 51.5q-70 0 -114 -51.5t-44 -129.5t44.5 -130t114.5 -52z" />
    <glyph glyph-name="Gcommaaccent" unicode="&#x122;" horiz-adv-x="746" 
d="M435 337h259v-46q0 -59 -19.5 -112t-56 -96t-95 -68t-131.5 -25q-98 0 -174.5 44.5t-117 120t-40.5 168.5q0 141 92 236t240 95q36 0 69 -6t55.5 -14.5t39.5 -17t25 -13.5l8 -6l-34 -49q-21 18 -63.5 34t-99.5 16q-121 0 -194 -79.5t-73 -196.5q0 -116 73.5 -196.5
t193.5 -80.5q106 0 172.5 65.5t65.5 173.5h-195v53zM379 -63q21 0 33.5 -18t11.5 -43q-1 -33 -21.5 -63.5t-62.5 -46.5l-10 25q28 14 42.5 35.5t14.5 41.5q-16 -6 -31.5 3t-15.5 28q0 17 10.5 27.5t28.5 10.5z" />
    <glyph glyph-name="gcommaaccent" unicode="&#x123;" 
d="M272 550q-21 0 -33.5 17.5t-11.5 43.5q1 32 21.5 63t62.5 47l10 -25q-28 -14 -42.5 -35.5t-14.5 -42.5q16 7 31.5 -2t15.5 -28q0 -17 -10.5 -27.5t-28.5 -10.5zM425 444h48v-428q0 -108 -50.5 -167t-150.5 -59q-54 0 -96 15l15 53q37 -16 80 -16q72 0 107.5 45t35.5 128
v65q-27 -43 -69.5 -66.5t-96.5 -23.5q-90 0 -149 64t-59 168.5t59 169t148 64.5q56 0 99.5 -25.5t69.5 -69.5zM260 41q71 0 116 52t45 130t-45 129.5t-117 51.5q-70 0 -114 -51.5t-44 -129.5t44.5 -130t114.5 -52z" />
    <glyph glyph-name="Hcircumflex" unicode="&#x124;" horiz-adv-x="648" 
d="M271 707q-17 -17 -38 -17h-40l104 110h54l104 -110h-40q-21 0 -38 17l-53 52zM497 640h62v-640h-62v307h-345v-307h-62v640h62v-282h345v282z" />
    <glyph glyph-name="hcircumflex" unicode="&#x125;" horiz-adv-x="516" 
d="M155 727l-53 52l-53 -52q-17 -17 -38 -17h-40l104 110h54l104 -110h-40q-22 0 -38 17zM280 456q31 0 59 -9.5t53 -29.5t40 -58.5t15 -89.5v-269h-60v258q0 70 -31 108t-88 38t-95 -43t-39 -130v-231h-59v680h59v-325q19 51 57.5 76t88.5 25z" />
    <glyph glyph-name="Hbar" unicode="&#x126;" horiz-adv-x="648" 
d="M497 640h62v-640h-62v307h-345v-307h-62v640h62v-130h345v130zM152 358h345v112h-345v-112z" />
    <glyph glyph-name="hbar" unicode="&#x127;" horiz-adv-x="516" 
d="M280 456q31 0 59 -9.5t53 -29.5t40 -58.5t15 -89.5v-269h-60v258q0 70 -31 108t-88 38t-95 -43t-39 -130v-231h-59v526h-86v42h86v112h59v-112h118v-42h-118v-172q19 52 57.5 77t88.5 25z" />
    <glyph glyph-name="Itilde" unicode="&#x128;" horiz-adv-x="241" 
d="M175 697q-25 0 -56 20.5t-49 20.5q-30 0 -50 -36l-36 24q10 16 17 25t24.5 20t39.5 11q25 0 57.5 -20.5t50.5 -20.5q30 0 46 39l40 -21q-30 -62 -84 -62zM152 640v-640h-62v640h62z" />
    <glyph glyph-name="itilde" unicode="&#x129;" horiz-adv-x="207" 
d="M158 531q-25 0 -56 20.5t-49 20.5q-30 0 -50 -36l-36 24q10 16 17 25t24.5 20t39.5 11q25 0 57.5 -20.5t50.5 -20.5q30 0 46 39l40 -21q-30 -62 -84 -62zM75 0v444h58v-444h-58z" />
    <glyph glyph-name="Imacron" unicode="&#x12a;" horiz-adv-x="241" 
d="M0 725v40h241v-40h-241zM152 640v-640h-62v640h62z" />
    <glyph glyph-name="imacron" unicode="&#x12b;" horiz-adv-x="207" 
d="M-17 559v40h241v-40h-241zM75 0v444h58v-444h-58z" />
    <glyph glyph-name="Ibreve" unicode="&#x12c;" horiz-adv-x="241" 
d="M121 690q-58 0 -92.5 29.5t-37.5 76.5h44q3 -27 25 -46t61 -19t61 19t25 46h43q-2 -47 -36.5 -76.5t-92.5 -29.5zM152 640v-640h-62v640h62z" />
    <glyph glyph-name="ibreve" unicode="&#x12d;" horiz-adv-x="207" 
d="M104 524q-58 0 -92.5 29.5t-37.5 76.5h44q3 -27 25 -46t61 -19t61 19t25 46h43q-2 -47 -36.5 -76.5t-92.5 -29.5zM75 0v444h58v-444h-58z" />
    <glyph glyph-name="Iogonek" unicode="&#x12e;" horiz-adv-x="241" 
d="M152 -120l12 -34q-33 -24 -75.5 -18t-58.5 39q-15 34 3.5 69.5t63.5 63.5h-7v640h62v-640l-20 -12q-60 -34 -62 -78q-1 -31 29 -39q22 -5 53 9z" />
    <glyph glyph-name="iogonek" unicode="&#x12f;" horiz-adv-x="207" 
d="M104 542q-19 0 -32.5 13.5t-13.5 32.5t13.5 32.5t32.5 13.5t32 -13.5t13 -32.5t-13 -32.5t-32 -13.5zM111 -12q-59 -34 -61 -78q-2 -31 29 -39q22 -5 53 9l12 -35q-33 -23 -76 -17t-58 39q-16 34 3 69.5t64 63.5h-2v444h58v-444h-2z" />
    <glyph glyph-name="Idotaccent" unicode="&#x130;" horiz-adv-x="241" 
d="M121 708q-19 0 -32.5 13.5t-13.5 32.5t13.5 32.5t32.5 13.5t32 -13.5t13 -32.5t-13 -32.5t-32 -13.5zM152 640v-640h-62v640h62z" />
    <glyph glyph-name="dotlessi" unicode="&#x131;" horiz-adv-x="207" 
d="M75 0v444h58v-444h-58z" />
    <glyph glyph-name="ij" unicode="&#x133;" horiz-adv-x="388" 
d="M104 547q-19 0 -32.5 13t-13.5 32t13.5 32.5t32.5 13.5t32 -13.5t13 -32.5t-13 -32t-32 -13zM300 547q-19 0 -32.5 13t-13.5 32t13.5 32.5t32.5 13.5t32.5 -13.5t13.5 -32.5t-13.5 -32t-32.5 -13zM75 0v444h58v-444h-58zM330 444v-524q0 -130 -108 -130q-26 0 -35 7l6 51
q6 -6 27 -6q20 0 35 16t15 56v530h60z" />
    <glyph glyph-name="Jcircumflex" unicode="&#x134;" horiz-adv-x="438" 
d="M350 790l104 -110h-40q-22 0 -38 17l-53 52l-53 -52q-17 -17 -38 -17h-40l104 110h54zM292 172v468h62v-463q0 -95 -45.5 -141t-117.5 -46q-79 0 -141 57l36 50q45 -52 103 -52q49 0 76 33t27 94z" />
    <glyph glyph-name="jcircumflex" unicode="&#x135;" horiz-adv-x="191" 
d="M130 627l104 -110h-40q-22 0 -38 17l-53 52l-53 -52q-17 -17 -38 -17h-40l104 110h54zM73 -86v530h60v-525q0 -129 -108 -129q-27 0 -35 7l6 51q6 -6 27 -6q20 0 35 16t15 56z" />
    <glyph glyph-name="Kcommaaccent" unicode="&#x136;" horiz-adv-x="563" 
d="M213 340l335 -340h-85l-311 319v-319h-62v640h62v-281l297 281h83zM294 -63q21 0 33.5 -18t12.5 -43q-1 -33 -21.5 -63.5t-63.5 -46.5l-10 25q29 14 43.5 35.5t14.5 41.5q-17 -6 -32.5 3t-15.5 28q0 17 10.5 27.5t28.5 10.5z" />
    <glyph glyph-name="kcommaaccent" unicode="&#x137;" horiz-adv-x="456" 
d="M195 243l257 -243h-83l-235 224v-224h-59v680h59v-419l208 183h82zM239 -63q21 0 33.5 -18t11.5 -43q0 -33 -20.5 -63.5t-63.5 -46.5l-10 25q28 14 43 35.5t15 41.5q-17 -6 -32.5 3t-15.5 28q0 17 10.5 27.5t28.5 10.5z" />
    <glyph glyph-name="kgreenlandic" unicode="&#x138;" horiz-adv-x="458" 
d="M454 0h-80l-240 225v-225h-59v447h59v-185l214 185h78l-235 -202z" />
    <glyph glyph-name="Lacute" unicode="&#x139;" horiz-adv-x="439" 
d="M165 738q-28 -30 -44 -39t-33 -9h-26l126 148l62 -11zM152 54h258v-54h-320v640h62v-586z" />
    <glyph glyph-name="lacute" unicode="&#x13a;" horiz-adv-x="209" 
d="M138 779q-28 -30 -44 -39t-33 -9h-26l127 148l61 -11zM75 0v680h59v-680h-59z" />
    <glyph glyph-name="Lcommaaccent" unicode="&#x13b;" horiz-adv-x="439" 
d="M152 54h258v-54h-320v640h62v-586zM241 -63q21 0 33.5 -18t11.5 -43q0 -33 -20.5 -63.5t-63.5 -46.5l-10 25q28 14 43 35.5t15 41.5q-17 -6 -32.5 3t-15.5 28q0 17 10.5 27.5t28.5 10.5z" />
    <glyph glyph-name="lcommaaccent" unicode="&#x13c;" horiz-adv-x="209" 
d="M75 0v680h59v-680h-59zM66 -234l-10 25q29 14 43.5 35.5t14.5 41.5q-16 -6 -32 3t-16 28q0 17 10.5 27.5t28.5 10.5q22 0 34 -18t12 -43q-1 -33 -21.5 -63.5t-63.5 -46.5z" />
    <glyph glyph-name="Lcaron" unicode="&#x13d;" horiz-adv-x="439" 
d="M152 54h258v-54h-320v640h62v-586zM240 487q28 15 43 36t15 42q-17 -7 -32.5 2t-15.5 28q0 17 10.5 28t28.5 11q21 0 33.5 -18t11.5 -43q-1 -33 -21.5 -64t-62.5 -46z" />
    <glyph glyph-name="lcaron" unicode="&#x13e;" horiz-adv-x="209" 
d="M75 0v680h59v-680h-59zM197 503l-11 25q29 14 43.5 35.5t14.5 42.5q-16 -7 -32 2t-16 28q0 17 10.5 28t29.5 11q21 0 33.5 -18t11.5 -44q-1 -32 -21.5 -63t-62.5 -47z" />
    <glyph glyph-name="Ldot" unicode="&#x13f;" horiz-adv-x="439" 
d="M152 54h258v-54h-320v640h62v-586zM315 326q-19 0 -32.5 13t-13.5 32t13.5 32.5t32.5 13.5t32 -13.5t13 -32.5t-13 -32t-32 -13z" />
    <glyph glyph-name="ldot" unicode="&#x140;" horiz-adv-x="332" 
d="M75 0v680h59v-680h-59zM246 296q-19 0 -32.5 13t-13.5 32t13.5 32.5t32.5 13.5t32.5 -13.5t13.5 -32.5t-13.5 -32t-32.5 -13z" />
    <glyph glyph-name="Lslash" unicode="&#x141;" horiz-adv-x="439" 
d="M152 54h258v-54h-320v271l-64 -49v54l64 49v315h62v-267l63 49v-54l-63 -49v-265z" />
    <glyph glyph-name="lslash" unicode="&#x142;" horiz-adv-x="209" 
d="M199 439v-54l-65 -50v-335h-59v289l-65 -50v54l65 50v337h59v-291z" />
    <glyph glyph-name="Nacute" unicode="&#x143;" horiz-adv-x="682" 
d="M375 738q-28 -30 -44 -39t-33 -9h-26l126 148l62 -11zM532 640h61v-640h-59l-384 537v-537h-60v640h58l384 -536v536z" />
    <glyph glyph-name="nacute" unicode="&#x144;" horiz-adv-x="515" 
d="M295 572q-28 -30 -44 -39t-33 -9h-26l127 148l61 -11zM279 456q31 0 59 -9.5t53 -29.5t40 -58.5t15 -89.5v-269h-60v258q0 70 -30.5 108t-88.5 38q-53 0 -90.5 -38.5t-42.5 -115.5v-250h-59v444h52l7 -82v-6q19 51 57.5 75.5t87.5 24.5z" />
    <glyph glyph-name="Ncommaaccent" unicode="&#x145;" horiz-adv-x="682" 
d="M532 640h61v-640h-59l-384 538v-538h-60v640h58l384 -536v536zM342 -63q21 0 33.5 -18t11.5 -43q0 -33 -20.5 -63.5t-63.5 -46.5l-10 25q28 14 43 35.5t15 41.5q-17 -6 -32.5 3t-15.5 28q0 17 10.5 27.5t28.5 10.5z" />
    <glyph glyph-name="ncommaaccent" unicode="&#x146;" horiz-adv-x="515" 
d="M279 456q31 0 59 -9.5t53 -29.5t40 -58.5t15 -89.5v-269h-60v258q0 70 -30.5 108t-88.5 38q-53 0 -90.5 -38.5t-42.5 -115.5v-250h-59v444h52l7 -82v-6q19 51 57.5 75.5t87.5 24.5zM262 -63q22 0 34 -18t12 -43q-1 -33 -21.5 -63.5t-62.5 -46.5l-11 25q29 14 43.5 35.5
t14.5 41.5q-16 -6 -32 3t-16 28q0 17 10.5 27.5t28.5 10.5z" />
    <glyph glyph-name="Ncaron" unicode="&#x147;" horiz-adv-x="682" 
d="M368 691h-54l-104 109h40q22 0 39 -17l52 -52l53 52q17 17 38 17h41zM532 640h61v-640h-59l-384 537v-537h-60v640h58l384 -536v536z" />
    <glyph glyph-name="ncaron" unicode="&#x148;" horiz-adv-x="515" 
d="M289 525h-54l-104 109h40q21 0 38 -17l53 -52l52 52q17 17 39 17h40zM279 456q31 0 59 -9.5t53 -29.5t40 -58.5t15 -89.5v-269h-60v258q0 70 -30.5 108t-88.5 38q-53 0 -90.5 -38.5t-42.5 -115.5v-250h-59v444h52l7 -82v-6q19 51 57.5 75.5t87.5 24.5z" />
    <glyph glyph-name="napostrophe" unicode="&#x149;" horiz-adv-x="576" 
d="M81 654q26 0 42 -22.5t15 -54.5q-2 -41 -27.5 -79.5t-78.5 -57.5l-12 31q35 18 53.5 44.5t18.5 51.5q-21 -8 -40.5 3.5t-19.5 35.5q0 21 13 34.5t36 13.5zM340 456q31 0 59 -9.5t53 -29.5t40 -58.5t15 -89.5v-269h-60v258q0 70 -31 108t-88 38q-53 0 -90.5 -38.5
t-42.5 -115.5v-250h-60v444h52l8 -82v-6q19 51 57.5 75.5t87.5 24.5z" />
    <glyph glyph-name="Eng" unicode="&#x14a;" horiz-adv-x="682" 
d="M532 640h61v-675q0 -41 -10.5 -71.5t-26.5 -46t-36 -24t-40 -9t-36 1t-26 4.5l-11 3l8 56q3 -1 7 -2.5t16 -3t23 -1.5t24.5 4.5t23 13t16.5 26t7 41.5v43l-361 506l10 -12l-31 44v-538h-60v640h58l384 -536v536z" />
    <glyph glyph-name="eng" unicode="&#x14b;" horiz-adv-x="515" 
d="M279 456q31 0 59 -9.5t53 -29.5t40 -58.5t15 -89.5v-323q0 -62 -32.5 -91t-88.5 -18v48q61 -9 61 56v317q0 70 -30.5 108t-88.5 38q-53 0 -90.5 -38.5t-42.5 -115.5v-250h-59v444h52l7 -82v-6q19 51 57.5 75.5t87.5 24.5z" />
    <glyph glyph-name="Omacron" unicode="&#x14c;" horiz-adv-x="785" 
d="M272 725v40h241v-40h-241zM392.5 -11q-96.5 0 -173 45t-118 120.5t-41.5 166.5q0 141 93.5 236.5t239.5 95.5t239.5 -95.5t93.5 -236.5q0 -91 -42 -166.5t-118.5 -120.5t-173 -45zM392.5 45q118.5 0 193.5 80.5t75 195.5q0 117 -75 197t-193.5 80t-193 -80t-74.5 -197
q0 -115 74.5 -195.5t193 -80.5z" />
    <glyph glyph-name="omacron" unicode="&#x14d;" horiz-adv-x="544" 
d="M151 559v40h242v-40h-242zM272 -11q-101 0 -166.5 67.5t-65.5 166t65.5 166t166.5 67.5t167 -67.5t66 -166t-66 -166t-167 -67.5zM272 41q74 0 122 52.5t48 129t-48 129t-122 52.5t-122 -52.5t-48 -129t48 -129t122 -52.5z" />
    <glyph glyph-name="Obreve" unicode="&#x14e;" horiz-adv-x="785" 
d="M393 690q-58 0 -92.5 29.5t-37.5 76.5h44q3 -27 25 -46t61 -19t61 19t25 46h43q-2 -47 -36.5 -76.5t-92.5 -29.5zM392.5 -10q-96.5 0 -173 44.5t-118 120t-41.5 167.5q0 140 93.5 236t239.5 96t239.5 -96t93.5 -236q0 -92 -42 -167.5t-118.5 -120t-173 -44.5zM392.5 45
q118.5 0 193.5 80.5t75 196.5t-75 196t-193.5 80t-193 -80t-74.5 -196t74.5 -196.5t193 -80.5z" />
    <glyph glyph-name="obreve" unicode="&#x14f;" horiz-adv-x="544" 
d="M272 524q-58 0 -92.5 29.5t-36.5 76.5h43q4 -27 25.5 -46t60.5 -19t61 19t25 46h44q-2 -47 -37 -76.5t-93 -29.5zM272 -10q-101 0 -166.5 67t-65.5 165.5t65.5 166t166.5 67.5t167 -67.5t66 -166t-66 -165.5t-167 -67zM272 42q74 0 122 52t48 128.5t-48 129t-122 52.5
t-122 -52.5t-48 -129t48 -128.5t122 -52z" />
    <glyph glyph-name="Ohungarumlaut" unicode="&#x150;" horiz-adv-x="785" 
d="M367 738q-28 -30 -44 -39t-33 -9h-26l126 148l62 -11zM498 738q-28 -30 -44 -39t-33 -9h-26l126 148l62 -11zM392.5 -11q-96.5 0 -173 45t-118 120.5t-41.5 166.5q0 141 93.5 236.5t239.5 95.5t239.5 -95.5t93.5 -236.5q0 -91 -42 -166.5t-118.5 -120.5t-173 -45z
M392.5 45q118.5 0 193.5 80.5t75 195.5q0 117 -75 197t-193.5 80t-193 -80t-74.5 -197q0 -115 74.5 -195.5t193 -80.5z" />
    <glyph glyph-name="ohungarumlaut" unicode="&#x151;" horiz-adv-x="544" 
d="M246 572q-28 -30 -44 -39t-33 -9h-26l127 148l61 -11zM377 572q-28 -30 -44 -39t-33 -9h-26l127 148l61 -11zM272 -11q-101 0 -166.5 67.5t-65.5 166t65.5 166t166.5 67.5t167 -67.5t66 -166t-66 -166t-167 -67.5zM272 41q74 0 122 52.5t48 129t-48 129t-122 52.5
t-122 -52.5t-48 -129t48 -129t122 -52.5z" />
    <glyph glyph-name="OE" unicode="&#x152;" horiz-adv-x="1086" 
d="M1027 586h-298v-240h248v-52h-248v-240h298v-54h-360v127q-45 -64 -116 -100.5t-158 -36.5q-97 0 -173.5 44.5t-118 120t-41.5 167.5q0 140 93.5 236t239.5 96q87 0 158 -37t116 -101v124h360v-54zM392.5 45q118.5 0 193.5 80.5t75 196.5t-75 196t-193.5 80t-193 -80
t-74.5 -196t74.5 -196.5t193 -80.5z" />
    <glyph glyph-name="oe" unicode="&#x153;" horiz-adv-x="912" 
d="M873 242v-25h-366q1 -76 46 -126t120 -50q87 0 135 58l43 -35q-30 -35 -76.5 -54.5t-101.5 -19.5q-68 0 -119.5 30t-79.5 83q-30 -52 -83 -82.5t-119 -30.5q-101 0 -166.5 67t-65.5 165.5t65.5 166t166.5 67.5q66 0 118.5 -30.5t82.5 -82.5q28 52 78 82.5t112 30.5
q93 0 151.5 -61.5t58.5 -152.5zM663 405q-61 0 -102 -40.5t-52 -104.5h305q-6 66 -46.5 105.5t-104.5 39.5zM271.5 42q73.5 0 122 52t48.5 128.5t-48.5 129t-122 52.5t-121.5 -52.5t-48 -129t48 -128.5t121.5 -52z" />
    <glyph glyph-name="Racute" unicode="&#x154;" horiz-adv-x="537" 
d="M294 738q-28 -30 -44 -39t-33 -9h-26l127 148l61 -11zM431 0l-217 296h-62v-296h-62v640h168q88 0 146 -48t58 -126q0 -75 -52.5 -119t-125.5 -50l224 -297h-77zM152 589v-242h94q70 0 110.5 30t40.5 88q0 59 -41.5 91.5t-115.5 32.5h-88z" />
    <glyph glyph-name="racute" unicode="&#x155;" horiz-adv-x="317" 
d="M215 572q-28 -30 -44 -39t-33 -9h-26l126 148l62 -11zM247 456q35 0 60 -13l-18 -54q-20 9 -44 9q-52 0 -81 -41t-30 -102v-3v1v-1v-252h-59v444h51l8 -77q31 89 113 89z" />
    <glyph glyph-name="Rcommaaccent" unicode="&#x156;" horiz-adv-x="537" 
d="M284 297l224 -297h-77l-217 296h-62v-296h-62v640h168q88 0 146 -48t58 -126q0 -75 -52.5 -119t-125.5 -50zM152 589v-242h94q70 0 110.5 30t40.5 88q0 60 -41.5 92t-115.5 32h-88zM275 -63q21 0 33.5 -18t11.5 -43q-1 -33 -21.5 -63.5t-62.5 -46.5l-11 25
q29 14 43.5 35.5t14.5 41.5q-16 -6 -32 3t-16 28q0 17 10.5 27.5t29.5 10.5z" />
    <glyph glyph-name="rcommaaccent" unicode="&#x157;" horiz-adv-x="317" 
d="M247 456q35 0 60 -13l-18 -54q-20 9 -44 9q-52 0 -81 -41t-30 -102v-3v1v-1v-252h-59v444h51l8 -77q31 89 113 89zM106 -63q21 0 33.5 -18t11.5 -43q-1 -33 -21.5 -63.5t-62.5 -46.5l-10 25q28 14 42.5 35.5t14.5 41.5q-16 -6 -31.5 3t-15.5 28q0 17 10.5 27.5t28.5 10.5
z" />
    <glyph glyph-name="Rcaron" unicode="&#x158;" horiz-adv-x="537" 
d="M288 691h-54l-104 109h40q21 0 38 -17l53 -52l53 52q16 17 38 17h40zM431 0l-217 296h-62v-296h-62v640h168q88 0 146 -48t58 -126q0 -75 -52.5 -119t-125.5 -50l224 -297h-77zM152 589v-242h94q70 0 110.5 30t40.5 88q0 59 -41.5 91.5t-116.5 32.5h-87z" />
    <glyph glyph-name="rcaron" unicode="&#x159;" horiz-adv-x="317" 
d="M209 525h-55l-104 109h40q22 0 39 -17l52 -52l53 52q17 17 38 17h41zM134 367q31 89 113 89q35 0 60 -13l-18 -54q-20 9 -44 9q-52 0 -81 -41t-30 -102v-3v1v-1v-252h-59v444h51z" />
    <glyph glyph-name="Sacute" unicode="&#x15a;" horiz-adv-x="512" 
d="M290 738q-28 -30 -44 -39t-33 -9h-26l127 148l61 -11zM253 -11q-139 0 -213 95l49 42q60 -81 163 -81q55 0 95 30.5t40 81.5t-33.5 82.5t-96.5 58.5q-28 13 -39.5 18t-35 17.5t-34 21t-26.5 24t-23 30.5t-13 36t-6 46q0 72 54 117t129 45q107 0 177 -73l-45 -41
q-60 59 -133 59q-51 0 -84.5 -30t-33.5 -77q0 -48 33.5 -78t108.5 -61q78 -33 122 -78t44 -112q0 -44 -17 -78t-46 -54t-63.5 -30.5t-72.5 -10.5z" />
    <glyph glyph-name="sacute" unicode="&#x15b;" horiz-adv-x="404" 
d="M242 572q-29 -30 -45 -39t-33 -9h-26l127 148l61 -11zM35 65l45 36q42 -60 121 -60q48 0 74.5 19.5t26.5 51.5q0 25 -18 42.5t-45 26t-58 20t-58 24.5t-45 39t-18 63q-1 57 41 93t111 36q44 0 80.5 -15.5t59.5 -39.5l-38 -39q-42 42 -102 42q-43 -1 -67 -21t-24 -53
q0 -26 18 -44.5t45 -27.5t59 -20.5t59 -23.5t45 -37.5t18 -61.5q0 -58 -45 -92t-119 -34q-56 0 -100.5 21.5t-65.5 54.5z" />
    <glyph glyph-name="Scircumflex" unicode="&#x15c;" horiz-adv-x="512" 
d="M204 707q-17 -17 -38 -17h-41l105 110h54l104 -110h-40q-22 0 -39 17l-52 52zM286 352q78 -33 122 -78t44 -112q0 -44 -17 -78t-46 -54t-63.5 -30.5t-72.5 -10.5q-139 0 -213 95l49 42q60 -81 163 -81q55 0 95 30.5t40 81.5t-33.5 82.5t-96.5 58.5q-28 13 -39.5 18
t-35 17.5t-34 21t-26.5 24t-23 30.5t-13 36t-6 46q0 72 54 117.5t129 45.5q107 0 177 -74l-45 -41q-60 59 -133 59q-51 0 -84.5 -30t-33.5 -77q0 -48 33.5 -78t108.5 -61z" />
    <glyph glyph-name="scircumflex" unicode="&#x15d;" horiz-adv-x="404" 
d="M155 541q-17 -17 -38 -17h-40l104 110h54l104 -110h-40q-22 0 -38 17l-53 52zM121 330q0 -26 18 -44.5t45 -27.5t59 -20.5t59 -23.5t45 -37.5t18 -61.5q0 -58 -45 -91.5t-119 -33.5q-56 0 -100.5 21t-65.5 54l45 36q42 -59 121 -59q48 0 74.5 19t26.5 51q0 25 -18 42.5
t-45 26t-58 20t-58 24.5t-45 39t-18 63q-1 57 41 93t111 36q44 0 80.5 -15.5t59.5 -39.5l-38 -39q-42 42 -102 42q-43 -1 -67 -21t-24 -53z" />
    <glyph glyph-name="Scedilla" unicode="&#x15e;" horiz-adv-x="512" 
d="M452 162q0 -80 -52.5 -123.5t-127.5 -48.5l-33 -48q2 1 6 2.5t17.5 4t27.5 0.5q28 -3 46.5 -20.5t17.5 -47.5q-1 -31 -29.5 -51.5t-76.5 -20.5q-25 0 -47 5.5t-32 11.5l-10 5l17 33q24 -16 66 -18q31 -1 46.5 11t15.5 29q-1 26 -33 32t-57 -8l-21 18l41 62
q-125 6 -194 94l49 42q60 -81 163 -81q55 0 95 30.5t40 81.5t-33.5 82.5t-96.5 58.5q-28 13 -39.5 18t-35 17.5t-34 21t-26.5 24t-23 30.5t-13 36t-6 46q0 72 54 117t129 45q107 0 177 -73l-45 -41q-60 59 -133 59q-51 0 -84.5 -30t-33.5 -77q0 -48 33.5 -78t108.5 -61
q78 -33 122 -78t44 -112z" />
    <glyph glyph-name="scedilla" unicode="&#x15f;" horiz-adv-x="404" 
d="M365 115q0 -53 -39 -86.5t-104 -38.5l-32 -46q3 1 7 2.5t17.5 4t27.5 1.5q28 -3 46.5 -20.5t17.5 -48.5t-29.5 -51t-76.5 -20q-25 0 -47.5 5t-32.5 11l-9 5l16 33q25 -16 67 -18q31 -1 46 11t15 29q0 27 -32 32.5t-58 -8.5l-21 18l40 60q-51 3 -90.5 24t-58.5 51l45 36
q42 -60 121 -60q48 0 74.5 19.5t26.5 51.5q0 25 -18 42.5t-45 26t-58 20t-58 24.5t-45 39t-18 63q-1 57 41 93t111 36q44 0 80.5 -15.5t59.5 -39.5l-38 -39q-42 42 -102 42q-43 -1 -67 -21t-24 -53q0 -26 18 -44.5t45 -27.5t59 -20.5t59 -23.5t45 -37.5t18 -61.5z" />
    <glyph glyph-name="Scaron" unicode="&#x160;" horiz-adv-x="512" 
d="M284 691h-54l-104 109h40q21 0 38 -17l53 -52l53 52q16 17 38 17h40zM286 352q78 -33 122 -78t44 -112q0 -44 -17 -78t-46 -54t-63.5 -30.5t-72.5 -10.5q-139 0 -213 95l49 42q60 -81 163 -81q55 0 95 30.5t40 81.5t-33.5 82.5t-96.5 58.5q-28 13 -39.5 18t-35 17.5
t-34 21t-26.5 24t-23 30.5t-13 36t-6 46q0 72 54 117t129 45q107 0 177 -73l-45 -41q-60 59 -133 59q-51 0 -84.5 -30t-33.5 -77q0 -48 33.5 -78t108.5 -61z" />
    <glyph glyph-name="scaron" unicode="&#x161;" horiz-adv-x="404" 
d="M235 525h-54l-104 109h40q21 0 38 -17l53 -52l53 52q17 17 38 17h40zM121 330q0 -26 18 -44.5t45 -27.5t59 -20.5t59 -23.5t45 -37.5t18 -61.5q0 -58 -45 -92t-119 -34q-56 0 -100.5 21.5t-65.5 54.5l45 36q42 -60 121 -60q48 0 74.5 19.5t26.5 51.5q0 25 -18 42.5
t-45 26t-58 20t-58 24.5t-45 39t-18 63q-1 57 41 93t111 36q44 0 80.5 -15.5t59.5 -39.5l-38 -39q-42 42 -102 42q-43 -1 -67 -21t-24 -53z" />
    <glyph glyph-name="uni0162" unicode="&#x162;" horiz-adv-x="465" 
d="M264 0h-11l-38 -56q2 1 6 2.5t17.5 4t27.5 1.5q28 -3 46.5 -20.5t18.5 -48.5q-1 -31 -30 -51t-77 -20q-25 0 -47 5t-32 11l-10 5l17 33q24 -16 66 -18q31 -1 46.5 11t15.5 29q-1 27 -32.5 32.5t-57.5 -8.5l-21 18l46 70h-13v586h-182v54h426v-54h-182v-586z" />
    <glyph glyph-name="uni0163" unicode="&#x163;" horiz-adv-x="275" 
d="M250 444v-50h-93l1 -394h-10l-38 -56q3 1 7 2.5t17.5 4t27.5 1.5q28 -3 46.5 -20.5t17.5 -48.5t-29.5 -51t-76.5 -20q-25 0 -47.5 5t-32.5 11l-9 5l16 33q25 -16 67 -18q31 -1 46 11t15 29q-1 27 -32.5 32.5t-57.5 -8.5l-21 18l47 70h-13v394h-57v50h57v129h59v-129h93z
" />
    <glyph glyph-name="Tcaron" unicode="&#x164;" horiz-adv-x="465" 
d="M260 691h-54l-104 109h40q21 0 38 -17l53 -52l53 52q16 17 38 17h40zM446 640v-54h-182v-586h-62v586h-182v54h426z" />
    <glyph glyph-name="tcaron" unicode="&#x165;" horiz-adv-x="275" 
d="M258 644q21 0 33.5 -18t11.5 -43q-1 -33 -21.5 -64t-62.5 -46l-10 24q28 15 42.5 36t14.5 42q-16 -7 -31.5 2t-15.5 29q0 16 10.5 27t28.5 11zM157 573v-129h93v-50h-93l1 -394h-60v394h-57v50h57v129h59z" />
    <glyph glyph-name="Tbar" unicode="&#x166;" horiz-adv-x="465" 
d="M446 586h-182v-243h100v-42h-100v-301h-62v301h-101v42h101v243h-182v54h426v-54z" />
    <glyph glyph-name="tbar" unicode="&#x167;" horiz-adv-x="275" 
d="M250 394h-93v-82h82v-42h-82l1 -270h-60v270h-45v42h45v82h-57v50h57v129h59v-129h93v-50z" />
    <glyph glyph-name="Utilde" unicode="&#x168;" horiz-adv-x="627" 
d="M368 697q-25 0 -56 20.5t-49 20.5q-30 0 -50 -36l-36 24q10 16 17 25t24.5 20t39.5 11q25 0 57.5 -20.5t50.5 -20.5q30 0 46 39l39 -21q-29 -62 -83 -62zM313.5 -11q-108.5 0 -168.5 64t-60 190v397h62v-389q0 -103 43.5 -154.5t123.5 -51.5t123.5 51.5t43.5 154.5v389
h62v-397q0 -126 -60.5 -190t-169 -64z" />
    <glyph glyph-name="utilde" unicode="&#x169;" horiz-adv-x="510" 
d="M310 531q-26 0 -57 20.5t-48 20.5q-31 0 -50 -36l-37 24q10 16 17 25t25 20t39 11q25 0 57.5 -20.5t51.5 -20.5q29 0 45 39l40 -21q-30 -62 -83 -62zM255 -12q-35 0 -66 9.5t-59 30.5t-44 60.5t-16 93.5v262h59v-262q0 -67 33 -104.5t93 -37.5t93 37.5t33 104.5v262h59
v-262q0 -54 -16 -93.5t-44 -60.5t-59 -30.5t-66 -9.5z" />
    <glyph glyph-name="Umacron" unicode="&#x16a;" horiz-adv-x="627" 
d="M193 725v40h241v-40h-241zM313.5 -11q-108.5 0 -168.5 64t-60 190v397h62v-389q0 -103 43.5 -154.5t123.5 -51.5t123.5 51.5t43.5 154.5v389h62v-397q0 -126 -60.5 -190t-169 -64z" />
    <glyph glyph-name="umacron" unicode="&#x16b;" horiz-adv-x="510" 
d="M134 559v40h242v-40h-242zM255 -12q-35 0 -66 9.5t-59 30.5t-44 60.5t-16 93.5v262h59v-262q0 -67 33 -104.5t93 -37.5t93 37.5t33 104.5v262h59v-262q0 -54 -16 -93.5t-44 -60.5t-59 -30.5t-66 -9.5z" />
    <glyph glyph-name="Ubreve" unicode="&#x16c;" horiz-adv-x="627" 
d="M314 690q-59 0 -93 29.5t-37 76.5h44q3 -27 24.5 -46t61.5 -19q39 0 61 19t25 46h43q-2 -47 -36.5 -76.5t-92.5 -29.5zM313.5 -10q-108.5 0 -168.5 63.5t-60 189.5v397h62v-389q0 -103 43.5 -154.5t123 -51.5t123.5 51.5t44 154.5v389h62v-397q0 -126 -60.5 -189.5
t-169 -63.5z" />
    <glyph glyph-name="ubreve" unicode="&#x16d;" horiz-adv-x="510" 
d="M255 524q-58 0 -92.5 29.5t-36.5 76.5h43q3 -27 25 -46t61 -19t61 19t25 46h44q-3 -47 -37.5 -76.5t-92.5 -29.5zM255 -12q-35 0 -66 9.5t-59 30.5t-44 60.5t-16 93.5v262h59v-262q0 -67 33 -104.5t93 -37.5t93 37.5t33 104.5v262h59v-262q0 -54 -16 -93.5t-44 -60.5
t-59 -30.5t-66 -9.5z" />
    <glyph glyph-name="Uring" unicode="&#x16e;" horiz-adv-x="627" 
d="M313.5 869q41.5 0 71 -28.5t29.5 -69t-29.5 -69t-71 -28.5t-71 28.5t-29.5 69t29.5 69t71 28.5zM313.5 715q24.5 0 42 16.5t17.5 40t-17.5 40t-42 16.5t-42 -16.5t-17.5 -40t17.5 -40t42 -16.5zM313.5 -11q-108.5 0 -168.5 64t-60 190v397h62v-389q0 -103 43.5 -154.5
t123 -51.5t123.5 51.5t44 154.5v389h62v-397q0 -126 -60.5 -190t-169 -64z" />
    <glyph glyph-name="uring" unicode="&#x16f;" horiz-adv-x="510" 
d="M254.5 703q41.5 0 71 -28.5t29.5 -69t-29.5 -69t-71 -28.5t-70.5 28.5t-29 69t29 69t70.5 28.5zM254.5 549q24.5 0 42 16.5t17.5 40t-17.5 40t-42 16.5t-41.5 -16.5t-17 -40t17 -40t41.5 -16.5zM255 -12q-35 0 -66 9.5t-59 30.5t-44 60.5t-16 93.5v262h59v-262
q0 -67 33 -104.5t93 -37.5t93 37.5t33 104.5v262h59v-262q0 -54 -16 -93.5t-44 -60.5t-59 -30.5t-66 -9.5z" />
    <glyph glyph-name="Uhungarumlaut" unicode="&#x170;" horiz-adv-x="627" 
d="M288 738q-28 -30 -44 -39t-33 -9h-26l126 148l62 -11zM419 738q-28 -30 -44 -39t-33 -9h-26l126 148l62 -11zM313.5 -11q-108.5 0 -168.5 64t-60 190v397h62v-389q0 -103 43.5 -154.5t123.5 -51.5t123.5 51.5t43.5 154.5v389h62v-397q0 -126 -60.5 -190t-169 -64z" />
    <glyph glyph-name="uhungarumlaut" unicode="&#x171;" horiz-adv-x="510" 
d="M229 572q-28 -30 -44 -39t-33 -9h-26l127 148l61 -11zM360 572q-28 -30 -44 -39t-33 -9h-26l126 148l62 -11zM255 -12q-35 0 -66 9.5t-59 30.5t-44 60.5t-16 93.5v262h59v-262q0 -67 33 -104.5t93 -37.5t93 37.5t33 104.5v262h59v-262q0 -54 -16 -93.5t-44 -60.5
t-59 -30.5t-66 -9.5z" />
    <glyph glyph-name="Uogonek" unicode="&#x172;" horiz-adv-x="627" 
d="M481 640h61v-397q0 -102 -39.5 -163.5t-113.5 -80.5l-18 -11q-60 -35 -62 -78q-2 -32 29 -39q22 -5 53 8l12 -34q-33 -23 -75.5 -17t-58.5 39q-14 30 0.5 63t51.5 60h-7q-109 0 -169 63.5t-60 189.5v397h62v-389q0 -103 43.5 -154.5t123 -51.5t123.5 51.5t44 154.5v389z
" />
    <glyph glyph-name="uogonek" unicode="&#x173;" horiz-adv-x="510" 
d="M381 444h59v-262q0 -78 -32.5 -123t-85.5 -61l-16 -10q-59 -34 -61 -78q-2 -31 28 -39q23 -5 54 9l12 -35q-33 -23 -76 -17t-58 39q-14 31 -0.5 62.5t49.5 58.5q-35 0 -66 9.5t-58.5 31t-43.5 60.5t-16 93v262h59v-262q0 -67 33 -104.5t93 -37.5t93 37.5t33 104.5v262z
" />
    <glyph glyph-name="Wcircumflex" unicode="&#x174;" horiz-adv-x="887" 
d="M390 707q-16 -17 -38 -17h-40l104 110h54l104 -110h-40q-21 0 -38 17l-53 52zM802 640h65l-212 -640h-49l-163 556l-162 -556h-49l-212 640h65l172 -550l160 550h53l160 -550z" />
    <glyph glyph-name="wcircumflex" unicode="&#x175;" horiz-adv-x="717" 
d="M306 541q-17 -17 -38 -17h-40l104 110h54l104 -110h-40q-22 0 -38 17l-53 52zM629 444h64l-170 -444h-49l-115 374l-115 -374h-50l-169 444h63l131 -366l114 366h51l115 -366z" />
    <glyph glyph-name="Ycircumflex" unicode="&#x176;" horiz-adv-x="508" 
d="M201 707q-17 -17 -38 -17h-40l104 110h54l104 -110h-40q-21 0 -38 17l-53 52zM508 640l-223 -336v-304h-62v304l-223 336h73l181 -277l181 277h73z" />
    <glyph glyph-name="ycircumflex" unicode="&#x177;" horiz-adv-x="442" 
d="M168 541q-17 -17 -38 -17h-40l104 110h54l104 -110h-40q-22 0 -39 17l-52 52zM373 444h64l-280 -654h-63l97 220l-186 434h64l152 -364z" />
    <glyph glyph-name="Ydieresis" unicode="&#x178;" horiz-adv-x="508" 
d="M173 705q-17 0 -28.5 12t-11.5 29t11.5 29t28.5 12t29 -12t12 -29t-12 -29t-29 -12zM334.5 705q-16.5 0 -28.5 12t-12 29t12 29t28.5 12t28.5 -12t12 -29t-12 -29t-28.5 -12zM508 640l-223 -336v-304h-62v304l-223 336h73l181 -277l181 277h73z" />
    <glyph glyph-name="Zacute" unicode="&#x179;" horiz-adv-x="566" 
d="M310 738q-28 -30 -44 -39t-33 -9h-26l127 148l61 -11zM136 54h370v-54h-446v46l349 540h-333v54h411v-47z" />
    <glyph glyph-name="zacute" unicode="&#x17a;" horiz-adv-x="459" 
d="M264 572q-29 -30 -45 -39t-33 -9h-26l127 148l61 -11zM121 53h294v-53h-370v44l280 347h-266v53h339v-49z" />
    <glyph glyph-name="Zdotaccent" unicode="&#x17b;" horiz-adv-x="566" 
d="M277 708q-19 0 -32.5 13.5t-13.5 32.5t13.5 32.5t32.5 13.5t32 -13.5t13 -32.5t-13 -32.5t-32 -13.5zM136 54h370v-54h-446v46l349 540h-333v54h411v-46z" />
    <glyph glyph-name="zdotaccent" unicode="&#x17c;" horiz-adv-x="459" 
d="M230 542q-19 0 -32.5 13.5t-13.5 32.5t13.5 32.5t32.5 13.5t32.5 -13.5t13.5 -32.5t-13.5 -32.5t-32.5 -13.5zM121 53h294v-53h-370v44l280 347h-266v53h339v-49z" />
    <glyph glyph-name="Zcaron" unicode="&#x17d;" horiz-adv-x="566" 
d="M304 691h-54l-104 109h40q21 0 38 -17l53 -52l53 52q16 17 38 17h40zM136 54h370v-54h-446v46l349 540h-333v54h411v-47z" />
    <glyph glyph-name="zcaron" unicode="&#x17e;" horiz-adv-x="459" 
d="M257 525h-54l-104 109h40q21 0 38 -17l53 -52l53 52q17 17 38 17h40zM121 53h294v-53h-370v44l280 347h-266v53h339v-49z" />
    <glyph glyph-name="uni0189" unicode="&#x189;" horiz-adv-x="653" 
d="M248 640q83 0 150 -25t109 -68.5t64.5 -101t22.5 -125t-22.5 -125t-64.5 -101.5t-109 -69t-150 -25h-158v301h-62v42h62v297h158zM237 50q139 0 215.5 71.5t76.5 198.5q0 128 -76.5 199t-215.5 71h-85v-247h139v-42h-139v-251h85z" />
    <glyph glyph-name="uni018F" unicode="&#x18f;" horiz-adv-x="725" 
d="M346 655q93 0 166.5 -45t113.5 -120.5t40 -167.5t-39.5 -168t-111.5 -121t-162 -45q-131 0 -212 90t-81 233v33h540q-6 110 -75.5 182.5t-178.5 72.5q-122 0 -198 -88l-49 39q43 50 106.5 77.5t140.5 27.5zM353 44q102 0 169 69.5t77 177.5h-474q4 -114 65.5 -180.5
t162.5 -66.5z" />
    <glyph glyph-name="florin" unicode="&#x192;" horiz-adv-x="426" 
d="M347 601q-30 0 -47 -25.5t-26 -73.5l-20 -108h102v-48h-111l-65 -348q-27 -148 -127 -148q-53 0 -89 33l32 42q25 -23 53 -23t45.5 24.5t27.5 75.5l64 344h-86v48h95l21 112q13 70 46 109t84 39q55 0 100 -40l-33 -41q-32 28 -66 28z" />
    <glyph glyph-name="uni0197" unicode="&#x197;" horiz-adv-x="241" 
d="M253 394v-42h-101v-352h-62v352h-101v42h101v246h62v-246h101z" />
    <glyph glyph-name="uni019D" unicode="&#x19d;" horiz-adv-x="682" 
d="M532 640h61v-640h-59l-384 538v-573q0 -33 -6 -58.5t-17 -41.5t-24.5 -27t-29 -16t-30.5 -7t-29 -0.5t-24.5 3t-16.5 3.5l-6 2l8 56q3 -1 7 -2.5t15.5 -3t22.5 -1.5t24 4.5t22.5 13t16 26t7.5 41.5v683h58l384 -536v536z" />
    <glyph glyph-name="uni01C3" unicode="&#x1c3;" horiz-adv-x="231" 
d="M150 640l-10 -474h-50l-10 474h70zM115 -6q-19 0 -32 13.5t-13 32t13 32t32 13.5t32.5 -13.5t13.5 -32t-13.5 -32t-32.5 -13.5z" />
    <glyph glyph-name="uni01CD" unicode="&#x1cd;" horiz-adv-x="589" 
d="M322 691h-54l-104 109h40q21 0 38 -17l53 -52l53 52q16 17 38 17h40zM513 0l-77 200l-283 -1l-77 -199h-66l254 640h61l255 -640h-67zM170 244h249l-124 323z" />
    <glyph glyph-name="uni01CE" unicode="&#x1ce;" 
d="M303 525h-55l-104 109h40q22 0 39 -17l52 -52l53 52q17 17 38 17h41zM424 447h49v-447h-49l-8 84q-27 -45 -70 -70t-98 -25q-90 0 -149 64.5t-59 169t59 169t148 64.5q56 0 99 -25t70 -70zM260 41q71 0 116 52t45 130t-45 129.5t-117 51.5q-70 0 -114 -51.5t-44 -129.5
t44.5 -130t114.5 -52z" />
    <glyph glyph-name="uni01CF" unicode="&#x1cf;" horiz-adv-x="241" 
d="M148 691h-54l-104 109h40q21 0 38 -17l53 -52l53 52q16 17 38 17h40zM90 0v640h62v-640h-62z" />
    <glyph glyph-name="uni01D0" unicode="&#x1d0;" horiz-adv-x="207" 
d="M131 525h-54l-104 109h40q21 0 38 -17l53 -52l53 52q16 17 38 17h40zM75 0v444h58v-444h-58z" />
    <glyph glyph-name="uni01D1" unicode="&#x1d1;" horiz-adv-x="785" 
d="M420 691h-54l-104 109h40q21 0 38 -17l53 -52l53 52q16 17 38 17h40zM393 653q146 0 239.5 -95.5t93.5 -236.5q0 -91 -42 -166.5t-118.5 -120.5t-173 -45t-173 45t-118 120.5t-41.5 166.5q0 141 93.5 236.5t239.5 95.5zM392.5 45q118.5 0 193.5 80.5t75 195.5
q0 117 -75 197t-193.5 80t-193 -80t-74.5 -197q0 -115 74.5 -195.5t193 -80.5z" />
    <glyph glyph-name="uni01D2" unicode="&#x1d2;" horiz-adv-x="544" 
d="M299 525h-54l-104 109h40q22 0 38 -17l53 -52l53 52q17 17 38 17h40zM272 456q101 0 167 -67.5t66 -166t-66 -166t-167 -67.5t-166.5 67.5t-65.5 166t65.5 166t166.5 67.5zM271.5 41q73.5 0 122 52.5t48.5 129t-48.5 129t-122 52.5t-121.5 -52.5t-48 -129t48 -129
t121.5 -52.5z" />
    <glyph glyph-name="uni01D3" unicode="&#x1d3;" horiz-adv-x="627" 
d="M341 691h-54l-104 109h40q21 0 38 -17l53 -52l53 52q16 17 38 17h40zM480 640h62v-397q0 -126 -60 -190t-168.5 -64t-168.5 64t-60 190v397h62v-389q0 -103 43.5 -154.5t123 -51.5t123 51.5t43.5 154.5v389z" />
    <glyph glyph-name="uni01D4" unicode="&#x1d4;" horiz-adv-x="510" 
d="M282 525h-54l-104 109h40q21 0 38 -17l53 -52l53 52q17 17 38 17h40zM381 444h59v-262q0 -54 -16 -93.5t-44 -60.5t-59 -30.5t-66 -9.5t-66 9.5t-59 30.5t-44 60.5t-16 93.5v262h59v-262q0 -67 33 -104.5t93 -37.5t93 37.5t33 104.5v262z" />
    <glyph glyph-name="uni01D5" unicode="&#x1d5;" horiz-adv-x="627" 
d="M193 835v40h241v-40h-241zM232.5 780q16.5 0 28.5 -12t12 -28q0 -18 -12 -30t-28.5 -12t-28.5 12t-12 30q0 16 12 28t28.5 12zM394 780q17 0 29 -12t12 -28q0 -18 -12 -30t-29 -12t-28.5 12t-11.5 30q0 16 11.5 28t28.5 12zM313.5 -11q-108.5 0 -168.5 64t-60 190v397h62
v-389q0 -103 43.5 -154.5t123.5 -51.5t123.5 51.5t43.5 154.5v389h62v-397q0 -126 -60.5 -190t-169 -64z" />
    <glyph glyph-name="uni01D6" unicode="&#x1d6;" horiz-adv-x="510" 
d="M134 679v41h242v-41h-242zM174 621q17 0 29 -12t12 -29t-12 -29t-29 -12t-28.5 12t-11.5 29t11.5 29t28.5 12zM335 621q17 0 29 -12t12 -29t-12 -29t-29 -12t-28.5 12t-11.5 29t11.5 29t28.5 12zM255 -12q-35 0 -66 9.5t-59 30.5t-44 60.5t-16 93.5v262h59v-262
q0 -67 33 -104.5t93 -37.5t93 37.5t33 104.5v262h59v-262q0 -54 -16 -93.5t-44 -60.5t-59 -30.5t-66 -9.5z" />
    <glyph glyph-name="uni01D7" unicode="&#x1d7;" horiz-adv-x="627" 
d="M275 800l97 118l60 -13l-84 -86q-19 -19 -41 -19h-32zM232.5 780q16.5 0 28.5 -12t12 -28q0 -18 -12 -30t-28.5 -12t-28.5 12t-12 30q0 16 12 28t28.5 12zM394 780q17 0 29 -12t12 -28q0 -18 -12 -30t-29 -12t-28.5 12t-11.5 30q0 16 11.5 28t28.5 12zM313.5 -11
q-108.5 0 -168.5 64t-60 190v397h62v-389q0 -103 43.5 -154.5t123.5 -51.5t123.5 51.5t43.5 154.5v389h62v-397q0 -126 -60.5 -190t-169 -64z" />
    <glyph glyph-name="uni01D8" unicode="&#x1d8;" horiz-adv-x="510" 
d="M216 645l97 117l61 -12l-85 -86q-19 -19 -40 -19h-33zM174 621q17 0 29 -12t12 -29t-12 -29t-29 -12t-28.5 12t-11.5 29t11.5 29t28.5 12zM335 621q17 0 29 -12t12 -29t-12 -29t-29 -12t-28.5 12t-11.5 29t11.5 29t28.5 12zM255 -12q-35 0 -66 9.5t-59 30.5t-44 60.5
t-16 93.5v262h59v-262q0 -67 33 -104.5t93 -37.5t93 37.5t33 104.5v262h59v-262q0 -54 -16 -93.5t-44 -60.5t-59 -30.5t-66 -9.5z" />
    <glyph glyph-name="uni01D9" unicode="&#x1d9;" horiz-adv-x="627" 
d="M341 801h-54l-104 109h40q21 0 38 -16l53 -53l53 53q16 16 38 16h40zM192 740q0 16 12 28t28.5 12t28.5 -12t12 -28q0 -18 -12 -30t-28.5 -12t-28.5 12t-12 30zM354 740q0 16 11.5 28t28.5 12t29 -12t12 -28q0 -18 -12 -30t-29 -12t-28.5 12t-11.5 30zM480 640h62v-397
q0 -126 -60 -190t-168.5 -64t-168.5 64t-60 190v397h62v-389q0 -103 43.5 -154.5t123 -51.5t123 51.5t43.5 154.5v389z" />
    <glyph glyph-name="uni01DA" unicode="&#x1da;" horiz-adv-x="510" 
d="M282 646l-54 -1l-104 110h40q21 0 38 -17l53 -52l53 52q17 17 38 17h40zM134 580q0 17 11.5 29t28.5 12t29 -12t12 -29t-12 -29t-29 -12t-28.5 12t-11.5 29zM295 580q0 17 11.5 29t28.5 12t29 -12t12 -29t-12 -29t-29 -12t-28.5 12t-11.5 29zM381 444h59v-262
q0 -54 -16 -93.5t-44 -60.5t-59 -30.5t-66 -9.5t-66 9.5t-59 30.5t-44 60.5t-16 93.5v262h59v-262q0 -67 33 -104.5t93 -37.5t93 37.5t33 104.5v262z" />
    <glyph glyph-name="uni01DB" unicode="&#x1db;" horiz-adv-x="627" 
d="M349 800h-33q-22 0 -40 19l-85 86l61 13zM232.5 780q16.5 0 28.5 -12t12 -28q0 -18 -12 -30t-28.5 -12t-28.5 12t-12 30q0 16 12 28t28.5 12zM394 780q17 0 29 -12t12 -28q0 -18 -12 -30t-29 -12t-28.5 12t-11.5 30q0 16 11.5 28t28.5 12zM313.5 -11q-108.5 0 -168.5 64
t-60 190v397h62v-389q0 -103 43.5 -154.5t123.5 -51.5t123.5 51.5t43.5 154.5v389h62v-397q0 -126 -60.5 -190t-169 -64z" />
    <glyph glyph-name="uni01DC" unicode="&#x1dc;" horiz-adv-x="510" 
d="M290 645h-33q-21 0 -40 19l-84 86l60 12zM174 621q17 0 29 -12t12 -29t-12 -29t-29 -12t-28.5 12t-11.5 29t11.5 29t28.5 12zM335 621q17 0 29 -12t12 -29t-12 -29t-29 -12t-28.5 12t-11.5 29t11.5 29t28.5 12zM255 -12q-35 0 -66 9.5t-59 30.5t-44 60.5t-16 93.5v262h59
v-262q0 -67 33 -104.5t93 -37.5t93 37.5t33 104.5v262h59v-262q0 -54 -16 -93.5t-44 -60.5t-59 -30.5t-66 -9.5z" />
    <glyph glyph-name="uni01DD" unicode="&#x1dd;" horiz-adv-x="508" 
d="M240 454q102 0 165.5 -67.5t63.5 -167.5q0 -97 -62.5 -164t-157.5 -67q-93 0 -151 61.5t-58 152.5v25h366q-2 76 -46.5 126t-119.5 50q-87 0 -135 -58l-43 35q29 35 75.5 54.5t102.5 19.5zM249 39q61 0 102.5 40.5t51.5 104.5h-304q5 -66 45.5 -105.5t104.5 -39.5z" />
    <glyph glyph-name="uni01DE" unicode="&#x1de;" horiz-adv-x="589" 
d="M415 875v-40h-241v40h241zM213.5 698q-16.5 0 -28.5 12t-12 30q0 16 12 28t28.5 12t28.5 -12t12 -28q0 -18 -12 -30t-28.5 -12zM375 780q17 0 29 -12t12 -28q0 -18 -12 -30t-29 -12t-28.5 12t-11.5 30q0 16 11.5 28t28.5 12zM513 0l-77 200l-283 -1l-77 -199h-66l254 640
h61l255 -640h-67zM170 244h249l-124 323z" />
    <glyph glyph-name="uni01DF" unicode="&#x1df;" 
d="M396 720v-41h-241v41h241zM194 539q-17 0 -28.5 12t-11.5 29t11.5 29t28.5 12t29 -12t12 -29t-12 -29t-29 -12zM356 621q17 0 29 -12t12 -29t-12 -29t-29 -12t-28.5 12t-11.5 29t11.5 29t28.5 12zM424 447h49v-447h-49l-8 84q-27 -45 -70 -70t-98 -25q-90 0 -149 64.5
t-59 169t59 169t148 64.5q56 0 99 -25t70 -70zM260 41q71 0 116 52t45 130t-45 129.5t-117 51.5q-70 0 -114 -51.5t-44 -129.5t44.5 -130t114.5 -52z" />
    <glyph glyph-name="Gcaron" unicode="&#x1e6;" horiz-adv-x="746" 
d="M405 691h-54l-104 109h40q21 0 38 -17l53 -52l53 52q17 17 38 17h40zM435 337h259v-46q0 -59 -19.5 -112t-56 -96t-95 -68.5t-131.5 -25.5q-98 0 -174.5 45t-117 120.5t-40.5 167.5q0 142 92 236.5t240 94.5q36 0 69 -5.5t55.5 -14t39.5 -17t25 -13.5l8 -6l-34 -49
q-21 18 -63.5 34t-99.5 16q-121 0 -194 -79.5t-73 -196.5q0 -116 73.5 -196.5t193.5 -80.5q106 0 172.5 65.5t65.5 173.5h-195v53z" />
    <glyph glyph-name="gcaron" unicode="&#x1e7;" 
d="M305 526h-54l-104 109h40q21 0 38 -16l53 -53l53 53q17 16 38 16h40zM425 444h48v-428q0 -108 -50.5 -167t-150.5 -59q-54 0 -96 15l15 53q37 -16 80 -16q72 0 107.5 45t35.5 128v65q-27 -43 -69.5 -67t-96.5 -24q-90 0 -149 64.5t-59 169t59 169t148 64.5
q56 0 99.5 -25.5t69.5 -69.5zM260 41q71 0 116 52t45 130t-45 129.5t-117 51.5q-70 0 -114 -51.5t-44 -129.5t44.5 -130t114.5 -52z" />
    <glyph glyph-name="uni01EA" unicode="&#x1ea;" horiz-adv-x="785" 
d="M456 -12q-60 -34 -62 -78q-2 -31 29 -39q22 -5 53 9l12 -35q-33 -23 -75.5 -17t-58.5 39q-14 30 0.5 63t51.5 60h-13q-97 0 -173.5 44.5t-118 120t-41.5 167.5q0 140 93.5 236t239.5 96t239.5 -96t93.5 -236q0 -120 -69.5 -209.5t-184.5 -114.5zM125 322
q0 -116 74.5 -196.5t193 -80.5t193.5 80.5t75 196.5t-75 196t-193.5 80t-193 -80t-74.5 -196z" />
    <glyph glyph-name="uni01EB" unicode="&#x1eb;" horiz-adv-x="544" 
d="M322 -12q-59 -34 -61 -78q-2 -31 28 -39q23 -5 54 9l12 -34q-33 -24 -76 -18t-58 39q-14 30 0 63t51 60q-101 0 -166.5 67t-65.5 165.5t65.5 166t166.5 67.5t167 -67.5t66 -165.5q0 -80 -45.5 -141.5t-119.5 -82.5zM102 222.5q0 -76.5 48 -128.5t122 -52t122 52t48 128.5
t-48 129t-122 52.5t-122 -52.5t-48 -129z" />
    <glyph glyph-name="Aringacute" unicode="&#x1fa;" horiz-adv-x="589" 
d="M329 815q-19 -19 -41 -19h-32l97 117l60 -12zM294.5 575q-41.5 0 -71 28.5t-29.5 69t29.5 69t71 28.5t71 -28.5t29.5 -69t-29.5 -69t-71 -28.5zM294.5 729q-24.5 0 -42 -16.5t-17.5 -40t17.5 -40t42 -16.5t42 16.5t17.5 40t-17.5 40t-42 16.5zM513 0l-77 171h-283
l-77 -171h-66l254 548h61l255 -548h-67zM170 209h249l-124 277z" />
    <glyph glyph-name="aringacute" unicode="&#x1fb;" 
d="M309 747q-18 -18 -40 -18h-33l97 117l61 -12zM275.5 508q-41.5 0 -71 28.5t-29.5 69t29.5 69t71 28.5t71 -28.5t29.5 -69t-29.5 -69t-71 -28.5zM275.5 662q-24.5 0 -42 -16.5t-17.5 -40t17.5 -40t42 -16.5t41.5 16.5t17 40t-17 40t-41.5 16.5zM424 447h49v-447h-49l-8 84
q-27 -45 -70 -69.5t-98 -24.5q-90 0 -149 64t-59 168.5t59 169t148 64.5q56 0 99 -25t70 -70zM260 41q71 0 116 52t45 130t-45 129.5t-117 51.5q-70 0 -114 -51.5t-44 -129.5t44.5 -130t114.5 -52z" />
    <glyph glyph-name="AEacute" unicode="&#x1fc;" horiz-adv-x="782" 
d="M461 728q-28 -30 -44 -39t-33 -9h-26l126 148l62 -11zM722 588h-383l72 -245h259v-51h-245l70 -238h227v-54h-278l-50 186h-248l-70 -186h-66l254 643h458v-55zM165 239h215l-90 336z" />
    <glyph glyph-name="aeacute" unicode="&#x1fd;" horiz-adv-x="891" 
d="M491 565q-28 -30 -44 -39t-33 -9h-26l126 148l62 -11zM856 242v-25h-366q2 -76 46.5 -126t119.5 -50q87 0 135 58l43 -35q-29 -35 -75.5 -55t-102.5 -20q-113 0 -178 82v-71h-49l-8 84q-27 -45 -70 -70t-98 -25q-90 0 -149 64.5t-59 169t59 169t148 64.5q56 0 99 -25
t70 -70l8 86h49v-71q64 80 169 80q93 0 151 -61.5t58 -152.5zM647 405q-61 0 -102.5 -40.5t-51.5 -104.5h304q-5 66 -45.5 105.5t-104.5 39.5zM265 41q71 0 116 52t45 130t-45 129.5t-117 51.5q-70 0 -114 -51.5t-44 -129.5t44 -130t115 -52z" />
    <glyph glyph-name="Oslashacute" unicode="&#x1fe;" horiz-adv-x="785" 
d="M421 738q-28 -30 -44 -39t-33 -9h-26l127 148l61 -11zM633 557q93 -94 93 -236q0 -91 -42 -166.5t-118.5 -120.5t-172.5 -45q-122 0 -210 70l-72 -80l-31 28l72 79q-92 95 -92 235q0 141 93.5 236.5t239.5 95.5q121 0 209 -68l72 80l31 -28zM125 322q0 -112 68 -190
l369 408q-71 58 -169 58q-119 0 -193.5 -80t-74.5 -196zM393 45q118 0 193 80.5t75 196.5q0 112 -69 190l-369 -408q71 -59 170 -59z" />
    <glyph glyph-name="oslashacute" unicode="&#x1ff;" horiz-adv-x="544" 
d="M306 572q-28 -30 -44 -39t-33 -9h-26l126 148l62 -11zM442 386q63 -66 63 -163q0 -99 -65.5 -166.5t-167.5 -67.5q-84 0 -145 48l-53 -59l-25 22l53 59q-62 66 -62 164t65 165.5t167 67.5q84 0 145 -48l53 59l25 -22zM101 223q0 -71 40 -121l238 264q-44 38 -107 38
q-75 0 -123 -52t-48 -129zM272 41q75 0 122.5 52t47.5 130q0 70 -39 119l-239 -263q46 -38 108 -38z" />
    <glyph glyph-name="Scommaaccent" unicode="&#x218;" horiz-adv-x="512" 
d="M253 -10q-139 0 -213 94l49 42q60 -81 163 -81q55 0 95 30.5t40 81.5t-33.5 82.5t-96.5 58.5q-28 13 -39.5 18t-35 17.5t-34 21t-26.5 24t-23 30.5t-13 36t-6 46q0 72 54 117t129 45q107 0 177 -73l-45 -41q-60 59 -133 59q-51 0 -84.5 -30t-33.5 -77q0 -48 33.5 -78
t108.5 -61q78 -33 122 -78t44 -112q0 -44 -17 -78t-46 -54t-63.5 -30t-72.5 -10zM218 -236l-10 25q28 14 43 35.5t15 41.5q-17 -6 -32.5 3t-15.5 28q0 17 10.5 27.5t28.5 10.5q21 0 33.5 -18t11.5 -43q0 -33 -20.5 -63.5t-63.5 -46.5z" />
    <glyph glyph-name="scommaaccent" unicode="&#x219;" horiz-adv-x="404" 
d="M35 65l45 36q42 -60 121 -60q48 0 74.5 19.5t26.5 51.5q0 25 -18 42.5t-45 26t-58 20t-58 24.5t-45 39t-18 63q-1 57 41 93t111 36q44 0 80.5 -15.5t59.5 -39.5l-38 -39q-42 42 -102 42q-43 -1 -67 -21t-24 -53q0 -26 18 -44.5t45 -27.5t59 -20.5t59 -23.5t45 -37.5
t18 -61.5q0 -58 -45 -91.5t-119 -33.5q-56 0 -100.5 21t-65.5 54zM170 -234l-10 25q28 14 42.5 35.5t14.5 41.5q-16 -6 -31.5 3t-15.5 28q0 17 10.5 27.5t28.5 10.5q21 0 33.5 -18t11.5 -43q-1 -33 -21.5 -63.5t-62.5 -46.5z" />
    <glyph glyph-name="uni021A" unicode="&#x21a;" horiz-adv-x="465" 
d="M446 640v-54h-182v-586h-62v586h-182v54h426zM233 -63q21 0 33.5 -18t12.5 -43q-1 -33 -21.5 -63.5t-63.5 -46.5l-10 25q29 14 43.5 35.5t14.5 41.5q-16 -6 -32 3t-16 28q0 17 10.5 27.5t28.5 10.5z" />
    <glyph glyph-name="uni021B" unicode="&#x21b;" horiz-adv-x="275" 
d="M157 444h93v-50h-93l1 -394h-60v394h-57v50h57v129h59v-129zM129 -63q21 0 33.5 -18t11.5 -43q-1 -33 -21.5 -63.5t-62.5 -46.5l-10 25q28 14 42.5 35.5t14.5 41.5q-16 -6 -31.5 3t-15.5 28q0 17 10.5 27.5t28.5 10.5z" />
    <glyph glyph-name="uni0228" unicode="&#x228;" horiz-adv-x="509" 
d="M450 586h-298v-240h248v-52h-248v-240h298v-54h-163l-38 -56q2 1 6.5 2.5t18 4t27.5 1.5q28 -3 46.5 -20.5t17.5 -48.5t-29.5 -51t-76.5 -20q-25 0 -47.5 5t-32.5 11l-10 5l17 33q24 -16 66 -18q32 -1 47 11t15 29q-1 27 -32.5 32.5t-57.5 -8.5l-21 18l47 70h-160v640
h360v-54z" />
    <glyph glyph-name="uni0229" unicode="&#x229;" horiz-adv-x="508" 
d="M469 242v-25h-367q2 -76 46.5 -126t119.5 -50q88 0 136 58l42 -35q-28 -34 -73.5 -54t-99.5 -20l-31 -46q2 1 6.5 2.5t17.5 4t28 1.5q27 -3 46 -20.5t18 -48.5t-30 -51t-77 -20q-25 0 -47 5t-32 11l-10 5l17 33q24 -16 66 -18q31 -1 46.5 11t15.5 29q-1 27 -32.5 32.5
t-57.5 -8.5l-21 18l41 61q-90 11 -143.5 76.5t-53.5 157.5q0 97 62 164t157 67q93 0 151.5 -61.5t58.5 -152.5zM259 405q-61 0 -102.5 -40.5t-51.5 -104.5h305q-6 66 -46.5 105.5t-104.5 39.5z" />
    <glyph glyph-name="uni022A" unicode="&#x22a;" horiz-adv-x="785" 
d="M272 835v40h241v-40h-241zM311.5 780q16.5 0 28.5 -12t12 -28q0 -18 -12 -30t-28.5 -12t-28.5 12t-12 30q0 16 12 28t28.5 12zM473 780q17 0 29 -12t12 -28q0 -18 -12 -30t-29 -12t-28.5 12t-11.5 30q0 16 11.5 28t28.5 12zM392.5 -11q-96.5 0 -173 45t-118 120.5
t-41.5 166.5q0 141 93.5 236.5t239.5 95.5t239.5 -95.5t93.5 -236.5q0 -91 -42 -166.5t-118.5 -120.5t-173 -45zM392.5 45q118.5 0 193.5 80.5t75 195.5q0 117 -75 197t-193.5 80t-193 -80t-74.5 -197q0 -115 74.5 -195.5t193 -80.5z" />
    <glyph glyph-name="uni022B" unicode="&#x22b;" horiz-adv-x="544" 
d="M151 679v41h242v-41h-242zM191 621q17 0 29 -12t12 -29t-12 -29t-29 -12t-28.5 12t-11.5 29t11.5 29t28.5 12zM352.5 621q16.5 0 28.5 -12t12 -29t-12 -29t-28.5 -12t-28.5 12t-12 29t12 29t28.5 12zM272 -11q-101 0 -166.5 67.5t-65.5 166t65.5 166t166.5 67.5
t167 -67.5t66 -166t-66 -166t-167 -67.5zM272 41q74 0 122 52.5t48 129t-48 129t-122 52.5t-122 -52.5t-48 -129t48 -129t122 -52.5z" />
    <glyph glyph-name="uni0232" unicode="&#x232;" horiz-adv-x="508" 
d="M375 765v-40h-242v40h242zM508 640l-223 -336v-304h-62v304l-223 336h73l181 -277l181 277h73z" />
    <glyph glyph-name="uni0233" unicode="&#x233;" horiz-adv-x="442" 
d="M341 599v-40h-241v40h241zM373 444h64l-281 -654h-62l96 220l-185 434h64l152 -364z" />
    <glyph glyph-name="uni0237" unicode="&#x237;" horiz-adv-x="191" 
d="M133 444v-525q0 -129 -108 -129q-27 0 -35 7l6 51q6 -6 27 -6q20 0 35 16t15 56v530h60z" />
    <glyph glyph-name="uni0243" unicode="&#x243;" horiz-adv-x="538" 
d="M306 356q81 -9 127 -56t46 -117q0 -85 -62 -134t-174 -49h-153v167h-60v42h60v431h134q93 0 145.5 -40t52.5 -110q0 -52 -31 -87.5t-85 -46.5zM231 590h-79v-210h84q54 0 87.5 29t33.5 79q0 49 -32.5 75.5t-93.5 26.5zM242 50q82 0 126.5 36.5t44.5 100.5q0 62 -45 99
t-120 37h-96v-114h141v-42h-141v-117h90z" />
    <glyph glyph-name="uni0244" unicode="&#x244;" horiz-adv-x="627" 
d="M481 640h61v-397q0 -126 -60 -189.5t-168.5 -63.5t-168.5 63.5t-60 189.5v397h62v-130h334v130zM313.5 45q79.5 0 123 51.5t43.5 154.5v219h-333v-219q0 -103 43.5 -154.5t123 -51.5z" />
    <glyph glyph-name="uni0245" unicode="&#x245;" horiz-adv-x="589" 
d="M580 0h-69l-216 562l-217 -562h-68l258 640h53z" />
    <glyph glyph-name="uni024C" unicode="&#x24c;" horiz-adv-x="537" 
d="M431 0l-217 296h-62v-296h-62v297h-60v50h60v293h168q88 0 146 -48t58 -126q0 -75 -52.5 -119t-125.5 -50l224 -297h-77zM239 589h-87v-242h94q70 0 110.5 30t40.5 88q0 60 -41.5 92t-116.5 32z" />
    <glyph glyph-name="uni0250" unicode="&#x250;" 
d="M300 456q90 0 149 -64.5t59 -169t-59 -168.5t-149 -64q-55 0 -98 24.5t-70 69.5l-8 -84h-49v447h49l8 -86q27 45 70 70t98 25zM288 41q70 0 114.5 52t44.5 130t-44.5 129.5t-113.5 51.5q-72 0 -117 -51.5t-45 -129.5t45 -130t116 -52z" />
    <glyph glyph-name="uni0251" unicode="&#x251;" horiz-adv-x="510" 
d="M386 447h49v-447h-49l-8 83q-24 -44 -63 -68.5t-88 -24.5q-81 0 -134 64t-53 168.5t53 169t134 64.5q49 0 88 -25t63 -69zM238 41q64 0 104.5 52t40.5 130t-40.5 129.5t-105.5 51.5q-63 0 -102.5 -51.5t-39.5 -129.5t40 -130t103 -52z" />
    <glyph glyph-name="uni0252" unicode="&#x252;" horiz-adv-x="510" 
d="M283 456q80 0 133.5 -64.5t53.5 -169t-53.5 -168.5t-133.5 -64q-49 0 -88 24.5t-63 68.5l-9 -83h-48v447h48l9 -85q24 44 63 69t88 25zM272 41q63 0 103 52t40 130t-40 129.5t-103 51.5q-64 0 -104.5 -51.5t-40.5 -129.5t40.5 -130t104.5 -52z" />
    <glyph glyph-name="uni0258" unicode="&#x258;" horiz-adv-x="508" 
d="M249 456q95 0 157.5 -67t62.5 -164q0 -100 -63.5 -168t-165.5 -68q-56 0 -102.5 20t-75.5 55l43 35q48 -58 135 -58q75 0 119.5 50t46.5 126h-366v25q0 91 58 152.5t151 61.5zM249 405q-64 0 -104.5 -39.5t-45.5 -105.5h304q-10 64 -51.5 104.5t-102.5 40.5z" />
    <glyph glyph-name="uni0259" unicode="&#x259;" horiz-adv-x="508" 
d="M240 454q102 0 165.5 -67.5t63.5 -167.5q0 -97 -62.5 -164t-157.5 -67q-93 0 -151 61.5t-58 152.5v25h366q-2 76 -46.5 126t-119.5 50q-87 0 -135 -58l-43 35q29 35 75.5 54.5t102.5 19.5zM249 39q61 0 102.5 40.5t51.5 104.5h-304q5 -66 45.5 -105.5t104.5 -39.5z" />
    <glyph glyph-name="uni0265" unicode="&#x265;" horiz-adv-x="516" 
d="M381 444h60v-680h-60v326q-18 -52 -57 -77t-88 -25q-32 0 -59.5 9.5t-52.5 29.5t-40 58.5t-15 89.5v269h60v-258q0 -70 30.5 -108t88.5 -38q57 0 95 43t38 130v231z" />
    <glyph glyph-name="uni0268" unicode="&#x268;" horiz-adv-x="207" 
d="M104 542q-19 0 -32.5 13.5t-13.5 32.5t13.5 32.5t32.5 13.5t32 -13.5t13 -32.5t-13 -32.5t-32 -13.5zM235 346v-42h-102v-304h-58v304h-103v42h103v98h58v-98h102z" />
    <glyph glyph-name="uni026F" unicode="&#x26f;" horiz-adv-x="774" 
d="M639 444h60v-444h-52l-7 70q-18 -39 -52.5 -60.5t-76.5 -21.5q-43 0 -81 22t-58 70q-39 -92 -146 -92q-29 0 -55.5 9.5t-50 30.5t-37 61t-13.5 94v261h59v-259q0 -68 26.5 -106.5t81.5 -38.5q53 0 83.5 39.5t33.5 112.5v252h60v-262q0 -64 27.5 -103t80.5 -39
q51 0 82.5 39t34.5 109v256z" />
    <glyph glyph-name="uni0272" unicode="&#x272;" horiz-adv-x="515" 
d="M279 456q31 0 59 -9.5t53 -29.5t40 -58.5t15 -89.5v-269h-60v258q0 70 -30.5 108t-88.5 38q-53 0 -90.5 -38.5t-42.5 -115.5v-304q0 -62 -32 -91t-89 -18v48q62 -9 62 56v503h52l7 -82v-6q19 51 57.5 75.5t87.5 24.5z" />
    <glyph glyph-name="uni0275" unicode="&#x275;" horiz-adv-x="544" 
d="M272 456q102 0 167.5 -67.5t65.5 -166t-65.5 -166t-167.5 -67.5t-167 67.5t-65 166t65 166t167 67.5zM272 404q-70 0 -117 -45.5t-53 -115.5h339q-7 70 -53 115.5t-116 45.5zM272 42q70 0 116 45t53 115h-339q6 -70 53 -115t117 -45z" />
    <glyph glyph-name="uni0279" unicode="&#x279;" horiz-adv-x="357" 
d="M223 444h59v-444h-51l-8 77q-31 -89 -113 -89q-35 0 -60 13l18 54q20 -9 44 -9q52 0 81 41t30 102v3v-1v1v252z" />
    <glyph glyph-name="uni0289" unicode="&#x289;" horiz-adv-x="510" 
d="M381 444h59v-262q0 -54 -16 -93.5t-44 -60.5t-59 -30.5t-66 -9.5t-66 9.5t-59 30.5t-44 60.5t-16 93.5v262h59v-138h252v138zM255 40q60 0 93 37.5t33 104.5v84h-252v-84q0 -67 33 -104.5t93 -37.5z" />
    <glyph glyph-name="uni028C" unicode="&#x28c;" horiz-adv-x="442" 
d="M437 0h-64l-152 375l-152 -375h-64l191 444h50z" />
    <glyph glyph-name="uni028D" unicode="&#x28d;" horiz-adv-x="717" 
d="M693 0h-64l-130 366l-115 -366h-51l-114 366l-131 -366h-63l169 444h50l115 -374l115 374h49z" />
    <glyph glyph-name="uni028E" unicode="&#x28e;" horiz-adv-x="452" 
d="M442 0h-64l-152 365l-152 -365h-64l280 654h63l-97 -220z" />
    <glyph glyph-name="circumflex" unicode="&#x2c6;" horiz-adv-x="350" 
d="M202 628l104 -109h-40q-21 0 -38 16l-53 53l-53 -53q-17 -16 -38 -16h-40l104 109h54z" />
    <glyph glyph-name="caron" unicode="&#x2c7;" horiz-adv-x="350" 
d="M266 635h40l-104 -109h-54l-104 109h40q21 0 38 -17l53 -52l53 52q17 17 38 17z" />
    <glyph glyph-name="uni02C9" unicode="&#x2c9;" horiz-adv-x="310" 
d="M0 579v36h310v-36h-310z" />
    <glyph glyph-name="breve" unicode="&#x2d8;" horiz-adv-x="347" 
d="M173 517q-58 0 -92.5 29.5t-36.5 76.5h44q3 -27 24.5 -46t60.5 -19t61 19t25 46h44q-2 -47 -37 -76.5t-93 -29.5z" />
    <glyph glyph-name="dotaccent" unicode="&#x2d9;" horiz-adv-x="179" 
d="M90 536q-19 0 -32.5 13.5t-13.5 32.5t13.5 32.5t32.5 13.5t32 -13.5t13 -32.5t-13 -32.5t-32 -13.5z" />
    <glyph glyph-name="ring" unicode="&#x2da;" horiz-adv-x="288" 
d="M144.5 693q41.5 0 70.5 -28.5t29 -69t-29 -69t-70.5 -28.5t-71 28.5t-29.5 69t29.5 69t71 28.5zM144.5 539q24.5 0 41.5 16.5t17 40t-17 40t-41.5 16.5t-42 -16.5t-17.5 -40t17.5 -40t42 -16.5z" />
    <glyph glyph-name="ogonek" unicode="&#x2db;" horiz-adv-x="270" 
d="M200 -155q-33 -23 -75.5 -17t-57.5 39q-18 38 8 78t82 68l31 -13l-20 -12q-59 -35 -62 -78q-1 -32 29 -39q23 -5 53 8z" />
    <glyph glyph-name="tilde" unicode="&#x2dc;" horiz-adv-x="363" 
d="M236 560q-26 0 -57 20.5t-48 20.5q-31 0 -50 -36l-37 24q10 16 17 25t25 20t39 11q25 0 57.5 -20.5t51.5 -20.5q29 0 45 38l40 -20q-30 -62 -83 -62z" />
    <glyph glyph-name="hungarumlaut" unicode="&#x2dd;" horiz-adv-x="407" 
d="M147 557q-28 -30 -44 -38.5t-33 -8.5h-26l127 148l61 -11zM278 557q-28 -30 -44 -38.5t-33 -8.5h-26l126 148l62 -11z" />
    <glyph glyph-name="gravecomb" unicode="&#x300;" horiz-adv-x="0" 
d="M-191 557l-85 90l61 11l127 -148h-26q-17 0 -33 8.5t-44 38.5z" />
    <glyph glyph-name="acutecomb" unicode="&#x301;" horiz-adv-x="0" 
d="M-173 557q-28 -30 -44 -38.5t-33 -8.5h-26l126 148l62 -11z" />
    <glyph glyph-name="uni0302" unicode="&#x302;" horiz-adv-x="0" 
d="M-192 628l104 -109h-40q-21 0 -38 16l-53 53l-53 -53q-17 -16 -38 -16h-40l104 109h54z" />
    <glyph glyph-name="tildecomb" unicode="&#x303;" horiz-adv-x="0" 
d="M-173 532q-26 0 -56.5 20.5t-48.5 20.5q-30 0 -50 -36l-36 24q10 17 17 26t24.5 20t39.5 11q25 0 57.5 -20.5t50.5 -20.5q30 0 46 38l39 -21q-29 -62 -83 -62z" />
    <glyph glyph-name="uni0304" unicode="&#x304;" horiz-adv-x="0" 
d="M-332 525v41h241v-41h-241z" />
    <glyph glyph-name="uni0306" unicode="&#x306;" horiz-adv-x="0" 
d="M-219 517q-58 0 -92.5 29.5t-37.5 76.5h44q3 -27 25 -46t61 -19t61 19t25 46h43q-2 -47 -36.5 -76.5t-92.5 -29.5z" />
    <glyph glyph-name="uni0307" unicode="&#x307;" horiz-adv-x="0" 
d="M-135 536q-19 0 -32.5 13.5t-13.5 32.5t13.5 32.5t32.5 13.5t32 -13.5t13 -32.5t-13 -32.5t-32 -13.5z" />
    <glyph glyph-name="uni0308" unicode="&#x308;" horiz-adv-x="0" 
d="M-290.5 605q16.5 0 28.5 -12t12 -29t-12 -29.5t-28.5 -12.5t-28.5 12.5t-12 29.5t12 29t28.5 12zM-129 605q17 0 29 -12t12 -29t-12 -29.5t-29 -12.5t-28.5 12.5t-11.5 29.5t11.5 29t28.5 12z" />
    <glyph glyph-name="uni030A" unicode="&#x30a;" horiz-adv-x="0" 
d="M-92.5 693q41.5 0 70.5 -28.5t29 -69t-29 -69t-70.5 -28.5t-71 28.5t-29.5 69t29.5 69t71 28.5zM-92.5 539q24.5 0 41.5 16.5t17 40t-17 40t-41.5 16.5t-42 -16.5t-17.5 -40t17.5 -40t42 -16.5z" />
    <glyph glyph-name="uni030B" unicode="&#x30b;" horiz-adv-x="0" 
d="M-288 557q-28 -30 -44 -38.5t-34 -8.5h-25l126 148l62 -11zM-157 557q-29 -30 -45 -38.5t-33 -8.5h-26l127 148l61 -11z" />
    <glyph glyph-name="uni030C" unicode="&#x30c;" horiz-adv-x="0" 
d="M-130 635h40l-104 -109h-54l-104 109h40q22 0 38 -17l53 -52l53 52q17 17 38 17z" />
    <glyph glyph-name="uni0312" unicode="&#x312;" horiz-adv-x="0" 
d="M-98 657l10 -24q-28 -15 -43 -36t-15 -42q17 7 32.5 -2t15.5 -29q0 -16 -10.5 -27t-28.5 -11q-21 0 -33.5 18t-11.5 43q1 33 21.5 64t62.5 46z" />
    <glyph glyph-name="dotbelowcomb" unicode="&#x323;" horiz-adv-x="0" 
d="M-134 -155q-19 0 -32 13.5t-13 32t13 32t32 13.5t32.5 -13.5t13.5 -32t-13.5 -32t-32.5 -13.5z" />
    <glyph glyph-name="uni0326" unicode="&#x326;" horiz-adv-x="0" 
d="M-172 -234l-11 25q29 14 43.5 35.5t14.5 41.5q-16 -6 -32 3t-16 28q0 17 10.5 27.5t29.5 10.5q21 0 33.5 -18t11.5 -43q-1 -33 -21.5 -63.5t-62.5 -46.5z" />
    <glyph glyph-name="uni0327" unicode="&#x327;" horiz-adv-x="0" 
d="M-154 -48q28 -3 46.5 -20.5t17.5 -48.5t-29.5 -51t-76.5 -20q-25 0 -47 5t-32 11l-10 5l17 33q24 -16 66 -18q31 -1 46.5 11t14.5 29q0 27 -32 32.5t-57 -8.5l-21 18l57 87h30v-12l-41 -61q2 1 6 2.5t17.5 4t27.5 1.5z" />
    <glyph glyph-name="uni0328" unicode="&#x328;" horiz-adv-x="0" 
d="M-90 -155q-32 -23 -75 -17t-58 39q-18 38 8 78t82 68l31 -13l-20 -12q-59 -35 -62 -78q-1 -32 29 -39q23 -5 53 8z" />
    <glyph glyph-name="uni0331" unicode="&#x331;" horiz-adv-x="0" 
d="M-332 -117v41h241v-41h-241z" />
    <glyph glyph-name="uni0335" unicode="&#x335;" horiz-adv-x="0" 
d="M-353 273v42h263v-42h-263z" />
    <glyph glyph-name="uni0336" unicode="&#x336;" horiz-adv-x="0" 
d="M-489 273v40h408v-40h-408z" />
    <glyph glyph-name="uni0337" unicode="&#x337;" horiz-adv-x="0" 
d="M-279 286l189 146v-54l-189 -146v54z" />
    <glyph glyph-name="uni0338" unicode="&#x338;" horiz-adv-x="0" 
d="M-7 661l31 -27l-594 -658l-31 27z" />
    <glyph glyph-name="uni0394" unicode="&#x394;" horiz-adv-x="584" 
d="M323 640l251 -597v-43h-564v43l251 597h62zM292 570l-213 -519h425z" />
    <glyph glyph-name="uni03A9" unicode="&#x3a9;" horiz-adv-x="795" 
d="M512 108v-56h180v-52h-237v146q86 9 137 70t51 144q0 101 -68.5 172t-177 71t-177 -71t-68.5 -172q0 -83 51.5 -144t137.5 -70v-146h-238v52h180v56q-87 24 -140 96t-53 166q0 121 86.5 203t221.5 82t221.5 -82t86.5 -203q0 -94 -53 -166t-141 -96z" />
    <glyph glyph-name="uni03BC" unicode="&#x3bc;" horiz-adv-x="520" 
d="M386 444h60v-444h-52l-8 82v6q-18 -50 -55.5 -75t-81.5 -25q-64 0 -116 52l-7 -230h-51v634h59v-258q0 -69 30.5 -107.5t88.5 -38.5q54 0 91 38.5t42 115.5v250z" />
    <glyph glyph-name="pi" unicode="&#x3c0;" horiz-adv-x="620" 
d="M541 55l10 -50q-21 -12 -62 -12q-39 0 -67 24t-28 82v295h-190v-394h-60v394h-69v50h466v-50h-87l1 -294q0 -54 46 -54q11 0 21 2t15 5z" />
    <glyph glyph-name="uni1E04" unicode="&#x1e04;" horiz-adv-x="538" 
d="M306 356q81 -9 127 -56t46 -117q0 -85 -62 -134t-174 -49h-153v640h134q93 0 145.5 -40t52.5 -110q0 -52 -31 -87.5t-85 -46.5zM231 590h-79v-210h84q54 0 87.5 29t33.5 79q0 49 -32.5 75.5t-93.5 26.5zM242 50q82 0 126.5 36.5t44.5 100.5q0 62 -45 99t-120 37h-96v-273
h90zM261 -64q19 0 32 -13.5t13 -32t-13 -32t-32 -13.5t-32.5 13.5t-13.5 32t13.5 32t32.5 13.5z" />
    <glyph glyph-name="uni1E05" unicode="&#x1e05;" horiz-adv-x="547" 
d="M300 456q90 0 149 -64.5t59 -169t-59 -169t-149 -64.5q-55 0 -98.5 25.5t-69.5 70.5l-8 -85h-49v680h59v-315q27 43 69.5 67t96.5 24zM288 41q70 0 114.5 52t44.5 130t-44.5 129.5t-114.5 51.5q-71 0 -116 -51.5t-45 -129.5t45 -130t116 -52zM244 -64q19 0 32.5 -13.5
t13.5 -32t-13.5 -32t-32.5 -13.5t-32 13.5t-13 32t13 32t32 13.5z" />
    <glyph glyph-name="uni1E0C" unicode="&#x1e0c;" horiz-adv-x="653" 
d="M248 640q83 0 150 -25t109 -68.5t64.5 -101t22.5 -125t-22.5 -125t-64.5 -101.5t-109 -69t-150 -25h-158v640h158zM237 50q139 0 215.5 71.5t76.5 198.5q0 128 -76.5 199t-215.5 71h-85v-540h85zM291 -64q19 0 32.5 -13.5t13.5 -32t-13.5 -32t-32.5 -13.5t-32.5 13.5
t-13.5 32t13.5 32t32.5 13.5z" />
    <glyph glyph-name="uni1E0D" unicode="&#x1e0d;" horiz-adv-x="547" 
d="M413 680h60v-680h-49l-8 85q-27 -45 -70.5 -70t-98.5 -25q-89 0 -148.5 64t-59.5 168.5t59.5 169t148.5 64.5q54 0 96.5 -24t69.5 -67v315zM259 41q71 0 116.5 52t45.5 130t-45.5 129.5t-116.5 51.5q-70 0 -114.5 -51.5t-44.5 -129.5t44.5 -130t114.5 -52zM272 -64
q19 0 32 -13.5t13 -32t-13 -32t-32 -13.5t-32.5 13.5t-13.5 32t13.5 32t32.5 13.5z" />
    <glyph glyph-name="uni1E0E" unicode="&#x1e0e;" horiz-adv-x="653" 
d="M248 640q83 0 150 -25t109 -68.5t64.5 -101t22.5 -125t-22.5 -125t-64.5 -101.5t-109 -69t-150 -25h-158v640h158zM237 50q139 0 215.5 71.5t76.5 198.5q0 128 -76.5 199t-215.5 71h-85v-540h85zM170 -121v41h242v-41h-242z" />
    <glyph glyph-name="uni1E0F" unicode="&#x1e0f;" horiz-adv-x="547" 
d="M413 680h60v-680h-49l-8 85q-27 -45 -70.5 -70t-98.5 -25q-89 0 -148.5 64t-59.5 168.5t59.5 169t148.5 64.5q54 0 96.5 -24t69.5 -67v315zM259 41q71 0 116.5 52t45.5 130t-45.5 129.5t-116.5 51.5q-70 0 -114.5 -51.5t-44.5 -129.5t44.5 -130t114.5 -52zM151 -121v41
h241v-41h-241z" />
    <glyph glyph-name="uni1E12" unicode="&#x1e12;" horiz-adv-x="653" 
d="M248 640q83 0 150 -25t109 -68.5t64.5 -101t22.5 -125t-22.5 -125t-64.5 -101.5t-109 -69t-150 -25h-158v640h158zM237 50q139 0 215.5 71.5t76.5 198.5q0 128 -76.5 199t-215.5 71h-85v-540h85zM264 -53h54l104 -109h-40q-21 0 -38 17l-53 52l-53 -52q-17 -17 -38 -17
h-40z" />
    <glyph glyph-name="uni1E13" unicode="&#x1e13;" horiz-adv-x="547" 
d="M413 680h60v-680h-49l-8 85q-27 -45 -70.5 -70t-98.5 -25q-89 0 -148.5 64t-59.5 168.5t59.5 169t148.5 64.5q54 0 96.5 -24t69.5 -67v315zM259 41q71 0 116.5 52t45.5 130t-45.5 129.5t-116.5 51.5q-70 0 -114.5 -51.5t-44.5 -129.5t44.5 -130t114.5 -52zM245 -53h54
l104 -109h-40q-22 0 -39 17l-52 52l-53 -52q-17 -17 -38 -17h-41z" />
    <glyph glyph-name="uni1E24" unicode="&#x1e24;" horiz-adv-x="648" 
d="M497 640h62v-640h-62v307h-345v-307h-62v640h62v-282h345v282zM324 -64q19 0 32.5 -13.5t13.5 -32t-13.5 -32t-32.5 -13.5t-32.5 13.5t-13.5 32t13.5 32t32.5 13.5z" />
    <glyph glyph-name="uni1E25" unicode="&#x1e25;" horiz-adv-x="516" 
d="M280 456q31 0 59 -9.5t53 -29.5t40 -58.5t15 -89.5v-269h-60v258q0 70 -31 108t-88 38t-95 -43t-39 -130v-231h-59v680h59v-326q19 52 57.5 77t88.5 25zM252 -64q19 0 32.5 -13.5t13.5 -32t-13.5 -32t-32.5 -13.5t-32.5 13.5t-13.5 32t13.5 32t32.5 13.5z" />
    <glyph glyph-name="uni1E2E" unicode="&#x1e2e;" horiz-adv-x="241" 
d="M154 848q-28 -30 -44 -39t-33 -9h-26l127 149l61 -12zM39.5 780q16.5 0 28.5 -12t12 -28q0 -18 -12 -30t-28.5 -12t-28.5 12t-12 30q0 16 12 28t28.5 12zM201 780q17 0 29 -12t12 -29t-12 -29t-29 -12t-28.5 12t-11.5 29t11.5 29t28.5 12zM152 640v-640h-62v640h62z" />
    <glyph glyph-name="uni1E2F" unicode="&#x1e2f;" horiz-adv-x="207" 
d="M137 692q-28 -30 -44 -38.5t-33 -8.5h-26l127 148l61 -11zM22.5 621q16.5 0 28.5 -12t12 -29t-12 -29t-28.5 -12t-28.5 12t-12 29t12 29t28.5 12zM184 621q17 0 29 -12t12 -29t-12 -29t-29 -12t-28.5 12t-11.5 29t11.5 29t28.5 12zM75 0v444h58v-444h-58z" />
    <glyph glyph-name="uni1E36" unicode="&#x1e36;" horiz-adv-x="439" 
d="M152 54h258v-54h-320v640h62v-586zM240 -64q19 0 32.5 -13.5t13.5 -32t-13.5 -32t-32.5 -13.5t-32 13.5t-13 32t13 32t32 13.5z" />
    <glyph glyph-name="uni1E37" unicode="&#x1e37;" horiz-adv-x="209" 
d="M75 0v680h59v-680h-59zM104 -155q-19 0 -32 13.5t-13 32t13 32t32 13.5t32.5 -13.5t13.5 -32t-13.5 -32t-32.5 -13.5z" />
    <glyph glyph-name="uni1E3C" unicode="&#x1e3c;" horiz-adv-x="439" 
d="M152 54h258v-54h-320v640h62v-586zM213 -53h54l104 -109h-40q-21 0 -38 17l-53 52l-53 -52q-16 -17 -38 -17h-40z" />
    <glyph glyph-name="uni1E3D" unicode="&#x1e3d;" horiz-adv-x="209" 
d="M134 680v-680h-59v680h59zM131 -53l105 -109h-41q-21 0 -38 17l-53 52l-52 -52q-17 -17 -39 -17h-40l104 109h54z" />
    <glyph glyph-name="uni1E3E" unicode="&#x1e3e;" horiz-adv-x="800" 
d="M434 738q-28 -30 -44 -39t-33 -9h-26l126 148l62 -11zM656 640h55v-640h-62v531l-249 -340l-248 340v-531h-62v640h54l256 -355z" />
    <glyph glyph-name="uni1E3F" unicode="&#x1e3f;" horiz-adv-x="774" 
d="M433 565q-28 -30 -44 -39t-34 -9h-26l127 148l62 -11zM547 456q30 0 56 -9.5t49.5 -30.5t37.5 -61t14 -94v-261h-60v259q0 68 -26.5 106.5t-80.5 38.5q-53 0 -84 -39.5t-34 -112.5v-252h-59v262q0 64 -27.5 103t-80.5 39q-52 0 -83.5 -39t-34.5 -109v-256h-59v444h52
l6 -70q18 39 52.5 60.5t76.5 21.5q43 0 81 -22t58 -70q40 92 146 92z" />
    <glyph glyph-name="uni1E44" unicode="&#x1e44;" horiz-adv-x="682" 
d="M341 708q-19 0 -32 13.5t-13 32.5t13 32.5t32 13.5t32.5 -13.5t13.5 -32.5t-13.5 -32.5t-32.5 -13.5zM532 640h61v-640h-59l-384 538v-538h-60v640h58l384 -536v536z" />
    <glyph glyph-name="uni1E45" unicode="&#x1e45;" horiz-adv-x="515" 
d="M261 542q-19 0 -32 13.5t-13 32.5t13 32.5t32 13.5t32.5 -13.5t13.5 -32.5t-13.5 -32.5t-32.5 -13.5zM279 456q31 0 59 -9.5t53 -29.5t40 -58.5t15 -89.5v-269h-60v258q0 70 -30.5 108t-88.5 38q-53 0 -90.5 -38.5t-42.5 -115.5v-250h-59v444h52l7 -82v-6
q19 51 57.5 75.5t87.5 24.5z" />
    <glyph glyph-name="uni1E46" unicode="&#x1e46;" horiz-adv-x="682" 
d="M532 640h61v-640h-59l-384 538v-538h-60v640h58l384 -536v536zM341 -64q19 0 32.5 -13.5t13.5 -32t-13.5 -32t-32.5 -13.5t-32 13.5t-13 32t13 32t32 13.5z" />
    <glyph glyph-name="uni1E47" unicode="&#x1e47;" horiz-adv-x="515" 
d="M279 456q31 0 59 -9.5t53 -29.5t40 -58.5t15 -89.5v-269h-60v258q0 70 -30.5 108t-88.5 38q-53 0 -90.5 -38.5t-42.5 -115.5v-250h-59v444h52l7 -82v-6q19 51 57.5 75.5t87.5 24.5zM261.5 -64q18.5 0 32 -13.5t13.5 -32t-13.5 -32t-32 -13.5t-32 13.5t-13.5 32t13.5 32
t32 13.5z" />
    <glyph glyph-name="uni1E4A" unicode="&#x1e4a;" horiz-adv-x="682" 
d="M532 640h61v-640h-59l-384 538v-538h-60v640h58l384 -536v536zM314 -53h54l104 -109h-40q-21 0 -38 17l-53 52l-53 -52q-16 -17 -38 -17h-40z" />
    <glyph glyph-name="uni1E4B" unicode="&#x1e4b;" horiz-adv-x="515" 
d="M279 456q31 0 59 -9.5t53 -29.5t40 -58.5t15 -89.5v-269h-60v258q0 70 -30.5 108t-88.5 38q-53 0 -90.5 -38.5t-42.5 -115.5v-250h-59v444h52l7 -82v-6q19 51 57.5 75.5t87.5 24.5zM234 -53h55l104 -109h-41q-21 0 -38 17l-53 52l-52 -52q-17 -17 -39 -17h-40z" />
    <glyph glyph-name="uni1E4C" unicode="&#x1e4c;" horiz-adv-x="785" 
d="M354 807l97 118l60 -13l-84 -86q-19 -19 -41 -19h-32zM447 697q-25 0 -56 20.5t-49 20.5q-30 0 -49 -36l-37 24q10 16 17 25t24.5 20t39.5 11q25 0 57.5 -20.5t50.5 -20.5q30 0 46 39l40 -21q-30 -62 -84 -62zM392.5 -11q-96.5 0 -173 45t-118 120.5t-41.5 166.5
q0 141 93.5 236.5t239.5 95.5t239.5 -95.5t93.5 -236.5q0 -91 -42 -166.5t-118.5 -120.5t-173 -45zM392.5 45q118.5 0 193.5 80.5t75 195.5q0 117 -75 197t-193.5 80t-193 -80t-74.5 -197q0 -115 74.5 -195.5t193 -80.5z" />
    <glyph glyph-name="uni1E4D" unicode="&#x1e4d;" horiz-adv-x="544" 
d="M233 641l97 118l61 -13l-85 -86q-18 -19 -40 -19h-33zM327 531q-26 0 -56.5 20.5t-48.5 20.5q-31 0 -50 -36l-37 24q10 16 17 25t25 20t39 11q26 0 58.5 -20.5t50.5 -20.5q29 0 45 39l40 -21q-29 -62 -83 -62zM272 -11q-101 0 -166.5 67.5t-65.5 166t65.5 166t166.5 67.5
t167 -67.5t66 -166t-66 -166t-167 -67.5zM272 41q74 0 122 52.5t48 129t-48 129t-122 52.5t-122 -52.5t-48 -129t48 -129t122 -52.5z" />
    <glyph glyph-name="uni1E50" unicode="&#x1e50;" horiz-adv-x="785" 
d="M428 775h-33q-22 0 -40 19l-85 86l61 13zM280 692v40h242v-40h-242zM392.5 -11q-96.5 0 -173 45t-118 120.5t-41.5 166.5q0 141 93.5 236.5t239.5 95.5t239.5 -95.5t93.5 -236.5q0 -91 -42 -166.5t-118.5 -120.5t-173 -45zM392.5 45q118.5 0 193.5 80.5t75 195.5
q0 117 -75 197t-193.5 80t-193 -80t-74.5 -197q0 -115 74.5 -195.5t193 -80.5z" />
    <glyph glyph-name="uni1E51" unicode="&#x1e51;" horiz-adv-x="544" 
d="M307 609h-32q-22 0 -41 19l-84 86l60 13zM160 526v40h241v-40h-241zM272 -11q-101 0 -166.5 67.5t-65.5 166t65.5 166t166.5 67.5t167 -67.5t66 -166t-66 -166t-167 -67.5zM272 41q74 0 122 52.5t48 129t-48 129t-122 52.5t-122 -52.5t-48 -129t48 -129t122 -52.5z" />
    <glyph glyph-name="uni1E52" unicode="&#x1e52;" horiz-adv-x="785" 
d="M354 775l97 118l60 -13l-84 -86q-19 -19 -41 -19h-32zM280 692v40h242v-40h-242zM392.5 -10q-96.5 0 -173 44.5t-118 120t-41.5 167.5q0 140 93.5 236t239.5 96t239.5 -96t93.5 -236q0 -92 -42 -167.5t-118.5 -120t-173 -44.5zM392.5 45q118.5 0 193.5 80.5t75 196.5
t-75 196t-193.5 80t-193 -80t-74.5 -196t74.5 -196.5t193 -80.5z" />
    <glyph glyph-name="uni1E53" unicode="&#x1e53;" horiz-adv-x="544" 
d="M233 609l97 118l61 -13l-85 -86q-18 -19 -40 -19h-33zM160 526v40h241v-40h-241zM272 -10q-101 0 -166.5 67t-65.5 165.5t65.5 166t166.5 67.5t167 -67.5t66 -166t-66 -165.5t-167 -67zM272 42q74 0 122 52t48 128.5t-48 129t-122 52.5t-122 -52.5t-48 -129t48 -128.5
t122 -52z" />
    <glyph glyph-name="uni1E62" unicode="&#x1e62;" horiz-adv-x="512" 
d="M253 -10q-139 0 -213 94l49 42q60 -81 163 -81q55 0 95 30.5t40 81.5t-33.5 82.5t-96.5 58.5q-28 13 -39.5 18t-35 17.5t-34 21t-26.5 24t-23 30.5t-13 36t-6 46q0 72 54 117t129 45q107 0 177 -73l-45 -41q-60 59 -133 59q-51 0 -84.5 -30t-33.5 -77q0 -48 33.5 -78
t108.5 -61q78 -33 122 -78t44 -112q0 -44 -17 -78t-46 -54t-63.5 -30t-72.5 -10zM256 -157q-19 0 -32 13t-13 32t13 32.5t32 13.5t32.5 -13.5t13.5 -32.5t-13.5 -32t-32.5 -13z" />
    <glyph glyph-name="uni1E63" unicode="&#x1e63;" horiz-adv-x="404" 
d="M35 65l45 36q42 -60 121 -60q48 0 74.5 19.5t26.5 51.5q0 25 -18 42.5t-45 26t-58 20t-58 24.5t-45 39t-18 63q-1 57 41 93t111 36q44 0 80.5 -15.5t59.5 -39.5l-38 -39q-42 42 -102 42q-43 -1 -67 -21t-24 -53q0 -26 18 -44.5t45 -27.5t59 -20.5t59 -23.5t45 -37.5
t18 -61.5q0 -58 -45 -91.5t-119 -33.5q-56 0 -100.5 21t-65.5 54zM208 -155q-19 0 -32.5 13.5t-13.5 32t13.5 32t32.5 13.5t32.5 -13.5t13.5 -32t-13.5 -32t-32.5 -13.5z" />
    <glyph glyph-name="uni1E6C" unicode="&#x1e6c;" horiz-adv-x="465" 
d="M446 640v-54h-182v-586h-62v586h-182v54h426zM232 -64q19 0 32.5 -13.5t13.5 -32t-13.5 -32t-32.5 -13.5t-32 13.5t-13 32t13 32t32 13.5z" />
    <glyph glyph-name="uni1E6D" unicode="&#x1e6d;" horiz-adv-x="275" 
d="M157 444h93v-50h-93l1 -394h-60v394h-57v50h57v129h59v-129zM128 -64q19 0 32 -13.5t13 -32t-13 -32t-32 -13.5t-32.5 13.5t-13.5 32t13.5 32t32.5 13.5z" />
    <glyph glyph-name="uni1E6E" unicode="&#x1e6e;" horiz-adv-x="465" 
d="M446 640v-54h-182v-586h-62v586h-182v54h426zM112 -121v41h241v-41h-241z" />
    <glyph glyph-name="uni1E6F" unicode="&#x1e6f;" horiz-adv-x="275" 
d="M157 444h93v-50h-93l1 -394h-60v394h-57v50h57v129h59v-129zM47 -121v41h162v-41h-162z" />
    <glyph glyph-name="uni1E70" unicode="&#x1e70;" horiz-adv-x="465" 
d="M446 640v-54h-182v-586h-62v586h-182v54h426zM205 -53h54l104 -109h-40q-21 0 -38 17l-53 52l-53 -52q-16 -17 -38 -17h-40z" />
    <glyph glyph-name="uni1E71" unicode="&#x1e71;" horiz-adv-x="275" 
d="M98 0v394h-57v50h57v129h59v-129h93v-50h-93l1 -394h-60zM155 -53l104 -109h-40q-22 0 -38 17l-53 52l-53 -52q-17 -17 -38 -17h-40l104 109h54z" />
    <glyph glyph-name="Wgrave" unicode="&#x1e80;" horiz-adv-x="887" 
d="M504 690q-17 0 -33 9t-44 39l-85 89l62 11l126 -148h-26zM802 640h65l-212 -640h-49l-163 556l-162 -556h-49l-212 640h65l172 -550l160 550h53l160 -550z" />
    <glyph glyph-name="wgrave" unicode="&#x1e81;" horiz-adv-x="717" 
d="M420 524q-17 0 -33 9t-45 39l-84 89l61 11l127 -148h-26zM629 444h64l-170 -444h-49l-115 374l-115 -374h-50l-169 444h63l131 -366l114 366h51l115 -366z" />
    <glyph glyph-name="Wacute" unicode="&#x1e82;" horiz-adv-x="887" 
d="M477 738q-28 -30 -44 -39t-33 -9h-26l126 148l62 -11zM802 640h65l-212 -640h-49l-163 556l-162 -556h-49l-212 640h65l172 -550l160 550h53l160 -550z" />
    <glyph glyph-name="wacute" unicode="&#x1e83;" horiz-adv-x="717" 
d="M392 572q-28 -30 -44 -39t-33 -9h-26l127 148l61 -11zM629 444h64l-170 -444h-49l-115 374l-115 -374h-50l-169 444h63l131 -366l114 366h51l115 -366z" />
    <glyph glyph-name="Wdieresis" unicode="&#x1e84;" horiz-adv-x="887" 
d="M362 705q-17 0 -28.5 12t-11.5 29t11.5 29t28.5 12t29 -12t12 -29t-12 -29t-29 -12zM524 705q-17 0 -28.5 12t-11.5 29t11.5 29t28.5 12t29 -12t12 -29t-12 -29t-29 -12zM802 640h65l-212 -640h-49l-163 556l-162 -556h-49l-212 640h65l172 -550l160 550h53l160 -550z
" />
    <glyph glyph-name="wdieresis" unicode="&#x1e85;" horiz-adv-x="717" 
d="M277.5 539q-16.5 0 -28.5 12t-12 29t12 29t28.5 12t28.5 -12t12 -29t-12 -29t-28.5 -12zM439 539q-17 0 -28.5 12t-11.5 29t11.5 29t28.5 12t29 -12t12 -29t-12 -29t-29 -12zM629 444h64l-170 -444h-49l-115 374l-115 -374h-50l-169 444h63l131 -366l114 366h51l115 -366
z" />
    <glyph glyph-name="uni1E92" unicode="&#x1e92;" horiz-adv-x="566" 
d="M136 54h370v-54h-446v46l349 540h-333v54h411v-46zM277 -64q19 0 32 -13.5t13 -32t-13 -32t-32 -13.5t-32.5 13.5t-13.5 32t13.5 32t32.5 13.5z" />
    <glyph glyph-name="uni1E93" unicode="&#x1e93;" horiz-adv-x="459" 
d="M121 53h294v-53h-370v44l280 347h-266v53h339v-49zM230 -64q19 0 32.5 -13.5t13.5 -32t-13.5 -32t-32.5 -13.5t-32.5 13.5t-13.5 32t13.5 32t32.5 13.5z" />
    <glyph glyph-name="uni1E9E" unicode="&#x1e9e;" horiz-adv-x="603" 
d="M260 -4l-10 58q99 -11 163 24t64 112q0 47 -28.5 79.5t-70 46t-91.5 13.5h-37v44l167 213h-120q-71 0 -108 -46.5t-37 -126.5v-413h-62v415q0 61 17 106t47 70.5t66.5 37t80.5 11.5h192v-46l-168 -215q30 -3 58 -9t58 -20.5t52 -34t36.5 -51.5t14.5 -72
q0 -72 -39.5 -120.5t-103 -67t-141.5 -8.5z" />
    <glyph glyph-name="uni1EA0" unicode="&#x1ea0;" horiz-adv-x="589" 
d="M580 0h-67l-77 200l-283 -1l-77 -199h-66l254 640h61zM170 244h249l-124 323zM295 -64q19 0 32 -13.5t13 -32t-13 -32t-32 -13.5t-32.5 13.5t-13.5 32t13.5 32t32.5 13.5z" />
    <glyph glyph-name="uni1EA1" unicode="&#x1ea1;" 
d="M424 447h49v-447h-49l-8 84q-27 -45 -70 -69.5t-98 -24.5q-90 0 -149 64t-59 168.5t59 169t148 64.5q56 0 99 -25t70 -70zM260 41q71 0 116 52t45 130t-45 129.5t-117 51.5q-70 0 -114 -51.5t-44 -129.5t44.5 -130t114.5 -52zM275 -64q19 0 32.5 -13.5t13.5 -32
t-13.5 -32t-32.5 -13.5t-32 13.5t-13 32t13 32t32 13.5z" />
    <glyph glyph-name="uni1EA4" unicode="&#x1ea4;" horiz-adv-x="589" 
d="M463 767q-19 -19 -40 -19h-33l97 118l61 -13zM242 707q-17 -17 -38 -17h-41l105 110h54l104 -110h-40q-22 0 -39 17l-52 52zM513 0l-77 200l-283 -1l-77 -199h-66l254 640h61l255 -640h-67zM170 244h249l-124 323z" />
    <glyph glyph-name="uni1EA5" unicode="&#x1ea5;" 
d="M444 601q-19 -19 -41 -19h-32l97 118l60 -13zM222 541q-16 -17 -38 -17h-40l104 110h54l104 -110h-40q-21 0 -38 17l-53 52zM416 361l8 86h49v-447h-49l-8 84q-27 -45 -70 -69.5t-98 -24.5q-90 0 -149 64t-59 168.5t59 169t148 64.5q56 0 99 -25t70 -70zM260 41
q71 0 116 52t45 130t-45 129.5t-117 51.5q-70 0 -114 -51.5t-44 -129.5t44.5 -130t114.5 -52z" />
    <glyph glyph-name="uni1EA6" unicode="&#x1ea6;" horiz-adv-x="589" 
d="M162 748q-22 0 -41 19l-84 86l60 13l97 -118h-32zM204 690h-41l105 110h54l104 -110h-40q-22 0 -39 17l-52 52l-53 -52q-17 -17 -38 -17zM513 0l-77 200l-283 -1l-77 -199h-66l254 640h61l255 -640h-67zM170 244h249l-124 323z" />
    <glyph glyph-name="uni1EA7" unicode="&#x1ea7;" 
d="M142 582q-21 0 -40 19l-85 86l61 13l97 -118h-33zM184 524h-40l104 110h54l104 -110h-40q-21 0 -38 17l-53 52l-53 -52q-16 -17 -38 -17zM424 447h49v-447h-49l-8 84q-27 -45 -70 -69.5t-98 -24.5q-90 0 -149 64t-59 168.5t59 169t148 64.5q56 0 99 -25t70 -70zM260 41
q71 0 116 52t45 130t-45 129.5t-117 51.5q-70 0 -114 -51.5t-44 -129.5t44.5 -130t114.5 -52z" />
    <glyph glyph-name="uni1EAA" unicode="&#x1eaa;" horiz-adv-x="589" 
d="M245 870q-30 0 -49 -36l-37 24q10 17 17 26t24.5 20t39.5 11q25 0 57.5 -20.5t50.5 -20.5q30 0 46 38l40 -21q-30 -62 -83 -62q-26 0 -57 20.5t-49 20.5zM268 800h54l104 -110h-40q-22 0 -39 17l-52 52l-53 -52q-17 -17 -38 -17h-41zM513 0l-77 200l-283 -1l-77 -199h-66
l254 640h61l255 -640h-67zM170 244h249l-124 323z" />
    <glyph glyph-name="uni1EAB" unicode="&#x1eab;" 
d="M226 704q-30 0 -50 -36l-37 24q11 17 18 26t24.5 20t38.5 11q26 0 58.5 -20.5t50.5 -20.5q30 0 46 38l39 -21q-29 -62 -83 -62q-26 0 -56.5 20.5t-48.5 20.5zM248 634h54l104 -110h-40q-21 0 -38 17l-53 52l-53 -52q-16 -17 -38 -17h-40zM424 447h49v-447h-49l-8 84
q-27 -45 -70 -69.5t-98 -24.5q-90 0 -149 64t-59 168.5t59 169t148 64.5q56 0 99 -25t70 -70zM260 41q71 0 116 52t45 130t-45 129.5t-117 51.5q-70 0 -114 -51.5t-44 -129.5t44.5 -130t114.5 -52z" />
    <glyph glyph-name="uni1EAC" unicode="&#x1eac;" horiz-adv-x="589" 
d="M242 707q-17 -17 -38 -17h-41l105 110h54l104 -110h-40q-22 0 -39 17l-52 52zM580 0h-67l-77 200l-283 -1l-77 -199h-66l254 640h61zM170 244h249l-124 323zM295 -64q19 0 32 -13.5t13 -32t-13 -32t-32 -13.5t-32.5 13.5t-13.5 32t13.5 32t32.5 13.5z" />
    <glyph glyph-name="uni1EAD" unicode="&#x1ead;" 
d="M222 541q-16 -17 -38 -17h-40l104 110h54l104 -110h-40q-21 0 -38 17l-53 52zM424 447h49v-447h-49l-8 84q-27 -45 -70 -69.5t-98 -24.5q-90 0 -149 64t-59 168.5t59 169t148 64.5q56 0 99 -25t70 -70zM260 41q71 0 116 52t45 130t-45 129.5t-117 51.5q-70 0 -114 -51.5
t-44 -129.5t44.5 -130t114.5 -52zM275 -64q19 0 32.5 -13.5t13.5 -32t-13.5 -32t-32.5 -13.5t-32 13.5t-13 32t13 32t32 13.5z" />
    <glyph glyph-name="uni1EAE" unicode="&#x1eae;" horiz-adv-x="589" 
d="M329 811q-19 -19 -41 -19h-32l97 117l60 -12zM295 690q-58 0 -92.5 29.5t-37.5 76.5h44q3 -27 25 -46t61 -19t61 19t25 46h43q-2 -47 -36.5 -76.5t-92.5 -29.5zM513 0l-77 200l-283 -1l-77 -199h-66l254 640h61l255 -640h-67zM170 244h249l-124 323z" />
    <glyph glyph-name="uni1EAF" unicode="&#x1eaf;" 
d="M309 645q-18 -19 -40 -19h-32l97 117l60 -12zM275 524q-58 0 -92.5 29.5t-36.5 76.5h44q3 -27 24.5 -46t60.5 -19q40 0 61.5 19t25.5 46h43q-2 -47 -36.5 -76.5t-93.5 -29.5zM424 447h49v-447h-49l-8 84q-27 -45 -70 -69.5t-98 -24.5q-90 0 -149 64t-59 168.5t59 169
t148 64.5q56 0 99 -25t70 -70zM260 41q71 0 116 52t45 130t-45 129.5t-117 51.5q-70 0 -114 -51.5t-44 -129.5t44.5 -130t114.5 -52z" />
    <glyph glyph-name="uni1EB0" unicode="&#x1eb0;" horiz-adv-x="589" 
d="M297 792q-21 0 -40 19l-85 86l61 12l97 -117h-33zM295 690q-58 0 -92.5 29.5t-37.5 76.5h44q3 -27 24.5 -46t61.5 -19q39 0 61 19t25 46h43q-2 -47 -36.5 -76.5t-92.5 -29.5zM513 0l-77 200l-283 -1l-77 -199h-66l254 640h61l255 -640h-67zM170 244h249l-124 323z" />
    <glyph glyph-name="uni1EB1" unicode="&#x1eb1;" 
d="M278 626q-22 0 -40 19l-85 86l61 12l97 -117h-33zM275 524q-58 0 -92.5 29.5t-36.5 76.5h44q3 -27 24.5 -46t60.5 -19q40 0 61.5 19t25.5 46h43q-2 -47 -36.5 -76.5t-93.5 -29.5zM424 447h49v-447h-49l-8 84q-27 -45 -70 -69.5t-98 -24.5q-90 0 -149 64t-59 168.5t59 169
t148 64.5q56 0 99 -25t70 -70zM260 41q71 0 116 52t45 130t-45 129.5t-117 51.5q-70 0 -114 -51.5t-44 -129.5t44.5 -130t114.5 -52z" />
    <glyph glyph-name="uni1EB4" unicode="&#x1eb4;" horiz-adv-x="589" 
d="M245 871q-30 0 -49 -36l-37 24q10 16 17 25.5t25 20t39 10.5q25 0 57.5 -20.5t51.5 -20.5q29 0 45 39l40 -21q-30 -62 -83 -62q-26 0 -57 20.5t-49 20.5zM295 731q39 0 61 19t25 46h43q-2 -47 -36.5 -76.5t-92.5 -29.5t-92.5 29.5t-37.5 76.5h44q3 -27 25 -46t61 -19z
M513 0l-77 200l-283 -1l-77 -199h-66l254 640h61l255 -640h-67zM170 244h249l-124 323z" />
    <glyph glyph-name="uni1EB5" unicode="&#x1eb5;" 
d="M226 705q-30 0 -50 -36l-36 24q10 16 17 25.5t24.5 20t39.5 10.5q25 0 57.5 -20.5t50.5 -20.5q30 0 46 39l39 -21q-29 -62 -83 -62q-25 0 -56 20.5t-49 20.5zM275 565q40 0 61.5 19t25.5 46h43q-2 -47 -36.5 -76.5t-93.5 -29.5q-58 0 -92.5 29.5t-36.5 76.5h44
q3 -27 24.5 -46t60.5 -19zM424 447h49v-447h-49l-8 84q-27 -45 -70 -70t-98 -25q-90 0 -149 64.5t-59 169t59 169t148 64.5q56 0 99 -25t70 -70zM260 41q71 0 116 52t45 130t-45 129.5t-117 51.5q-70 0 -114 -51.5t-44 -129.5t44.5 -130t114.5 -52z" />
    <glyph glyph-name="uni1EB6" unicode="&#x1eb6;" horiz-adv-x="589" 
d="M295 690q-58 0 -92.5 29.5t-37.5 76.5h44q3 -27 24.5 -46t61.5 -19q39 0 61 19t25 46h43q-2 -47 -36.5 -76.5t-92.5 -29.5zM580 0h-67l-77 200l-283 -1l-77 -199h-66l254 640h61zM170 244h249l-124 323zM295 -64q19 0 32 -13.5t13 -32t-13 -32t-32 -13.5t-32.5 13.5
t-13.5 32t13.5 32t32.5 13.5z" />
    <glyph glyph-name="uni1EB7" unicode="&#x1eb7;" 
d="M275 524q-58 0 -92.5 29.5t-36.5 76.5h44q3 -27 24.5 -46t60.5 -19q40 0 61.5 19t25.5 46h43q-2 -47 -36.5 -76.5t-93.5 -29.5zM424 447h49v-447h-49l-8 84q-27 -45 -70 -69.5t-98 -24.5q-90 0 -149 64t-59 168.5t59 169t148 64.5q56 0 99 -25t70 -70zM260 41
q71 0 116 52t45 130t-45 129.5t-117 51.5q-70 0 -114 -51.5t-44 -129.5t44.5 -130t114.5 -52zM275 -64q19 0 32.5 -13.5t13.5 -32t-13.5 -32t-32.5 -13.5t-32 13.5t-13 32t13 32t32 13.5z" />
    <glyph glyph-name="uni1EB8" unicode="&#x1eb8;" horiz-adv-x="509" 
d="M450 586h-298v-240h248v-52h-248v-240h298v-54h-360v640h360v-54zM266.5 -64q18.5 0 32 -13.5t13.5 -32t-13.5 -32t-32 -13.5t-32 13.5t-13.5 32t13.5 32t32 13.5z" />
    <glyph glyph-name="uni1EB9" unicode="&#x1eb9;" horiz-adv-x="508" 
d="M469 242v-25h-367q2 -76 46.5 -126t119.5 -50q88 0 136 58l42 -35q-29 -35 -75.5 -54.5t-102.5 -19.5q-102 0 -165 67.5t-63 167.5q0 97 62 164t157 67q93 0 151.5 -61.5t58.5 -152.5zM259 405q-61 0 -102.5 -40.5t-51.5 -104.5h305q-6 66 -46.5 105.5t-104.5 39.5z
M259 -64q19 0 32.5 -13.5t13.5 -32t-13.5 -32t-32.5 -13.5t-32 13.5t-13 32t13 32t32 13.5z" />
    <glyph glyph-name="uni1EBC" unicode="&#x1ebc;" horiz-adv-x="509" 
d="M216 738q-30 0 -50 -36l-36 24q10 16 17 25t24.5 20t39.5 11q25 0 57.5 -20.5t50.5 -20.5q30 0 46 39l39 -21q-29 -62 -83 -62q-25 0 -56 20.5t-49 20.5zM450 586h-298v-240h248v-52h-248v-240h298v-54h-360v640h360v-54z" />
    <glyph glyph-name="uni1EBD" unicode="&#x1ebd;" horiz-adv-x="508" 
d="M209 572q-30 0 -50 -36l-36 24q10 16 17 25t24.5 20t38.5 11q26 0 58.5 -20.5t50.5 -20.5q30 0 46 39l39 -21q-29 -62 -83 -62q-26 0 -56.5 20.5t-48.5 20.5zM469 242v-25h-367q2 -76 46.5 -126t119.5 -50q88 0 136 58l42 -35q-29 -35 -75.5 -55t-102.5 -20
q-102 0 -165 68t-63 168q0 97 62 164t157 67q93 0 151.5 -61.5t58.5 -152.5zM259 405q-61 0 -102.5 -40.5t-51.5 -104.5h305q-6 66 -46.5 105.5t-104.5 39.5z" />
    <glyph glyph-name="uni1EBE" unicode="&#x1ebe;" horiz-adv-x="509" 
d="M442 771q-18 -19 -40 -19h-32l97 117l60 -12zM224 706q-16 -17 -38 -17h-40l104 110h54l104 -110h-40q-21 0 -38 17l-53 52zM450 640v-54h-298v-240h248v-52h-248v-240h298v-54h-360v640h360z" />
    <glyph glyph-name="uni1EBF" unicode="&#x1ebf;" horiz-adv-x="508" 
d="M428 601q-19 -19 -40 -19h-33l97 118l60 -13zM207 541q-17 -17 -39 -17h-40l104 110h54l105 -110h-41q-21 0 -38 17l-53 52zM259 456q93 0 151.5 -61.5t58.5 -152.5v-25h-367q2 -76 46.5 -126t119.5 -50q88 0 136 58l42 -35q-29 -35 -75.5 -54.5t-102.5 -19.5
q-102 0 -165 67.5t-63 167.5q0 97 62 164t157 67zM259 405q-61 0 -102.5 -40.5t-51.5 -104.5h305q-6 66 -46.5 105.5t-104.5 39.5z" />
    <glyph glyph-name="uni1EC0" unicode="&#x1ec0;" horiz-adv-x="509" 
d="M160 752h-32q-22 0 -40 19l-85 86l60 12zM186 689h-40l104 110h54l104 -110h-40q-21 0 -38 17l-53 52l-53 -52q-16 -17 -38 -17zM450 586h-298v-240h248v-52h-248v-240h298v-54h-360v640h360v-54z" />
    <glyph glyph-name="uni1EC1" unicode="&#x1ec1;" horiz-adv-x="508" 
d="M126 582q-21 0 -40 19l-84 86l60 13l97 -118h-33zM168 524h-40l104 110h55l104 -110h-41q-21 0 -38 17l-53 52l-52 -52q-17 -17 -39 -17zM469 242v-25h-367q2 -76 46.5 -126t119.5 -50q88 0 136 58l42 -35q-29 -35 -75.5 -54.5t-102.5 -19.5q-102 0 -165 67.5t-63 167.5
q0 97 62 164t157 67q93 0 151.5 -61.5t58.5 -152.5zM259 405q-61 0 -102.5 -40.5t-51.5 -104.5h305q-6 66 -46.5 105.5t-104.5 39.5z" />
    <glyph glyph-name="uni1EC4" unicode="&#x1ec4;" horiz-adv-x="509" 
d="M228 869q-30 0 -50 -36l-37 24q11 16 18 25.5t24.5 20t38.5 10.5q26 0 58.5 -20.5t50.5 -20.5q30 0 46 39l39 -21q-29 -62 -83 -62q-26 0 -56.5 20.5t-48.5 20.5zM250 798l54 1l104 -110h-40q-21 0 -38 17l-53 52l-53 -52q-16 -17 -38 -17h-40zM450 586h-298v-240h248
v-52h-248v-240h298v-54h-360v640h360v-54z" />
    <glyph glyph-name="uni1EC5" unicode="&#x1ec5;" horiz-adv-x="508" 
d="M210 704q-30 0 -50 -36l-36 24q10 17 17 26t24.5 20t39.5 11q25 0 57.5 -20.5t50.5 -20.5q30 0 46 38l39 -21q-29 -62 -83 -62q-26 0 -56.5 20.5t-48.5 20.5zM232 634h55l104 -110h-41q-21 0 -38 17l-53 52l-52 -52q-17 -17 -39 -17h-40zM469 242v-25h-367
q2 -76 46.5 -126t119.5 -50q88 0 136 58l42 -35q-29 -35 -75.5 -54.5t-102.5 -19.5q-102 0 -165 67.5t-63 167.5q0 97 62 164t157 67q93 0 151.5 -61.5t58.5 -152.5zM259 405q-61 0 -102.5 -40.5t-51.5 -104.5h305q-6 66 -46.5 105.5t-104.5 39.5z" />
    <glyph glyph-name="uni1EC6" unicode="&#x1ec6;" horiz-adv-x="509" 
d="M214 707q-17 -17 -38 -17h-41l104 110h55l104 -110h-40q-22 0 -39 17l-52 52zM450 586h-298v-240h248v-52h-248v-240h298v-54h-360v640h360v-54zM266.5 -64q18.5 0 32 -13.5t13.5 -32t-13.5 -32t-32 -13.5t-32 13.5t-13.5 32t13.5 32t32 13.5z" />
    <glyph glyph-name="uni1EC7" unicode="&#x1ec7;" horiz-adv-x="508" 
d="M207 541q-17 -17 -39 -17h-40l104 110h55l104 -110h-41q-21 0 -38 17l-53 52zM469 242v-25h-367q2 -76 46.5 -126t119.5 -50q88 0 136 58l42 -35q-29 -35 -75.5 -54.5t-102.5 -19.5q-102 0 -165 67.5t-63 167.5q0 97 62 164t157 67q93 0 151.5 -61.5t58.5 -152.5z
M259 405q-61 0 -102.5 -40.5t-51.5 -104.5h305q-6 66 -46.5 105.5t-104.5 39.5zM259 -64q19 0 32.5 -13.5t13.5 -32t-13.5 -32t-32.5 -13.5t-32 13.5t-13 32t13 32t32 13.5z" />
    <glyph glyph-name="uni1ECA" unicode="&#x1eca;" horiz-adv-x="241" 
d="M152 640v-640h-62v640h62zM121 -155q-19 0 -32.5 13.5t-13.5 32t13.5 32t32.5 13.5t32.5 -13.5t13.5 -32t-13.5 -32t-32.5 -13.5z" />
    <glyph glyph-name="uni1ECB" unicode="&#x1ecb;" horiz-adv-x="207" 
d="M104 547q-19 0 -32.5 13t-13.5 32t13.5 32.5t32.5 13.5t32 -13.5t13 -32.5t-13 -32t-32 -13zM75 0v444h58v-444h-58zM99 -155q-19 0 -32 13.5t-13 32t13 32t32 13.5t32.5 -13.5t13.5 -32t-13.5 -32t-32.5 -13.5z" />
    <glyph glyph-name="uni1ECC" unicode="&#x1ecc;" horiz-adv-x="785" 
d="M392.5 -10q-96.5 0 -173 44.5t-118 120t-41.5 167.5q0 140 93.5 236t239.5 96t239.5 -96t93.5 -236q0 -92 -42 -167.5t-118.5 -120t-173 -44.5zM392.5 45q118.5 0 193.5 80.5t75 196.5t-75 196t-193.5 80t-193 -80t-74.5 -196t74.5 -196.5t193 -80.5zM393 -155
q-19 0 -32.5 13.5t-13.5 32t13.5 32t32.5 13.5t32 -13.5t13 -32t-13 -32t-32 -13.5z" />
    <glyph glyph-name="uni1ECD" unicode="&#x1ecd;" horiz-adv-x="544" 
d="M272 -10q-101 0 -166.5 67t-65.5 165.5t65.5 166t166.5 67.5t167 -67.5t66 -166t-66 -165.5t-167 -67zM272 42q74 0 122 52t48 128.5t-48 129t-122 52.5t-122 -52.5t-48 -129t48 -128.5t122 -52zM272 -155q-19 0 -32.5 13.5t-13.5 32t13.5 32t32.5 13.5t32.5 -13.5
t13.5 -32t-13.5 -32t-32.5 -13.5z" />
    <glyph glyph-name="uni1ED0" unicode="&#x1ed0;" horiz-adv-x="785" 
d="M561 767q-18 -19 -40 -19h-33l97 118l61 -13zM340 707q-17 -17 -38 -17h-40l104 110h54l104 -110h-40q-22 0 -38 17l-53 52zM393 654q146 0 239.5 -96t93.5 -236q0 -92 -42 -167.5t-118.5 -120t-173 -44.5t-173 44.5t-118 120t-41.5 167.5q0 140 93.5 236t239.5 96z
M392.5 45q118.5 0 193.5 80.5t75 196.5t-75 196t-193.5 80t-193 -80t-74.5 -196t74.5 -196.5t193 -80.5z" />
    <glyph glyph-name="uni1ED1" unicode="&#x1ed1;" horiz-adv-x="544" 
d="M440 601q-18 -19 -40 -19h-32l97 118l60 -13zM219 541q-17 -17 -38 -17h-40l104 110h54l104 -110h-40q-21 0 -38 17l-53 52zM272 456q101 0 167 -67.5t66 -166t-66 -165.5t-167 -67t-166.5 67t-65.5 165.5t65.5 166t166.5 67.5zM272 42q74 0 122 52t48 128.5t-48 129
t-122 52.5t-122 -52.5t-48 -129t48 -128.5t122 -52z" />
    <glyph glyph-name="uni1ED2" unicode="&#x1ed2;" horiz-adv-x="785" 
d="M260 748q-22 0 -41 19l-84 86l60 13l97 -118h-32zM302 690h-40l104 110h54l104 -110h-40q-22 0 -38 17l-53 52l-53 -52q-17 -17 -38 -17zM393 654q146 0 239.5 -96t93.5 -236q0 -92 -42 -167.5t-118.5 -120t-173 -44.5t-173 44.5t-118 120t-41.5 167.5q0 140 93.5 236
t239.5 96zM392.5 45q118.5 0 193.5 80.5t75 196.5t-75 196t-193.5 80t-193 -80t-74.5 -196t74.5 -196.5t193 -80.5z" />
    <glyph glyph-name="uni1ED3" unicode="&#x1ed3;" horiz-adv-x="544" 
d="M139 582q-22 0 -40 19l-85 86l61 13l97 -118h-33zM181 524h-40l104 110h54l104 -110h-40q-21 0 -38 17l-53 52l-53 -52q-17 -17 -38 -17zM272 456q101 0 167 -67.5t66 -166t-66 -165.5t-167 -67t-166.5 67t-65.5 165.5t65.5 166t166.5 67.5zM272 42q74 0 122 52t48 128.5
t-48 129t-122 52.5t-122 -52.5t-48 -129t48 -128.5t122 -52z" />
    <glyph glyph-name="uni1ED6" unicode="&#x1ed6;" horiz-adv-x="785" 
d="M343 870q-30 0 -49 -36l-37 24q10 17 17 26t24.5 20t39.5 11q25 0 57.5 -20.5t50.5 -20.5q30 0 46 38l40 -21q-30 -62 -83 -62q-26 0 -57 20.5t-49 20.5zM366 800h54l104 -110h-40q-22 0 -38 17l-53 52l-53 -52q-17 -17 -38 -17h-40zM393 654q146 0 239.5 -96t93.5 -236
q0 -92 -42 -167.5t-118.5 -120t-173 -44.5t-173 44.5t-118 120t-41.5 167.5q0 140 93.5 236t239.5 96zM392.5 45q118.5 0 193.5 80.5t75 196.5t-75 196t-193.5 80t-193 -80t-74.5 -196t74.5 -196.5t193 -80.5z" />
    <glyph glyph-name="uni1ED7" unicode="&#x1ed7;" horiz-adv-x="544" 
d="M223 704q-31 0 -50 -36l-37 24q11 17 17.5 26t24.5 20t39 11q26 0 58.5 -20.5t50.5 -20.5q29 0 46 38l39 -21q-29 -62 -83 -62q-26 0 -56.5 20.5t-48.5 20.5zM245 634h54l104 -110h-40q-21 0 -38 17l-53 52l-53 -52q-17 -17 -38 -17h-40zM272 456q101 0 167 -67.5
t66 -166t-66 -166t-167 -67.5t-166.5 67.5t-65.5 166t65.5 166t166.5 67.5zM272 42q74 0 122 52t48 128.5t-48 129t-122 52.5t-122 -52.5t-48 -129t48 -128.5t122 -52z" />
    <glyph glyph-name="uni1ED8" unicode="&#x1ed8;" horiz-adv-x="785" 
d="M340 707q-17 -17 -38 -17h-40l104 110h54l104 -110h-40q-22 0 -38 17l-53 52zM393 654q146 0 239.5 -96t93.5 -236q0 -92 -42 -167.5t-118.5 -120t-173 -44.5t-173 44.5t-118 120t-41.5 167.5q0 140 93.5 236t239.5 96zM392.5 45q118.5 0 193.5 80.5t75 196.5t-75 196
t-193.5 80t-193 -80t-74.5 -196t74.5 -196.5t193 -80.5zM393 -64q19 0 32 -13.5t13 -32t-13 -32t-32 -13.5t-32.5 13.5t-13.5 32t13.5 32t32.5 13.5z" />
    <glyph glyph-name="uni1ED9" unicode="&#x1ed9;" horiz-adv-x="544" 
d="M219 541q-17 -17 -38 -17h-40l104 110h54l104 -110h-40q-21 0 -38 17l-53 52zM272 456q101 0 167 -67.5t66 -166t-66 -165.5t-167 -67t-166.5 67t-65.5 165.5t65.5 166t166.5 67.5zM272 42q74 0 122 52t48 128.5t-48 129t-122 52.5t-122 -52.5t-48 -129t48 -128.5
t122 -52zM272 -64q19 0 32.5 -13.5t13.5 -32t-13.5 -32t-32.5 -13.5t-32.5 13.5t-13.5 32t13.5 32t32.5 13.5z" />
    <glyph glyph-name="uni1EE4" unicode="&#x1ee4;" horiz-adv-x="627" 
d="M313.5 -10q-108.5 0 -168.5 63.5t-60 189.5v397h62v-389q0 -103 43.5 -154.5t123 -51.5t123.5 51.5t44 154.5v389h62v-397q0 -126 -60.5 -189.5t-169 -63.5zM313.5 -155q-18.5 0 -32 13.5t-13.5 32t13.5 32t32 13.5t32 -13.5t13.5 -32t-13.5 -32t-32 -13.5z" />
    <glyph glyph-name="uni1EE5" unicode="&#x1ee5;" horiz-adv-x="510" 
d="M255 -12q-35 0 -66 9.5t-59 30.5t-44 60.5t-16 93.5v262h59v-262q0 -67 33 -104.5t93 -37.5t93 37.5t33 104.5v262h59v-262q0 -54 -16 -93.5t-44 -60.5t-59 -30.5t-66 -9.5zM255 -155q-19 0 -32.5 13.5t-13.5 32t13.5 32t32.5 13.5t32.5 -13.5t13.5 -32t-13.5 -32
t-32.5 -13.5z" />
    <glyph glyph-name="Ygrave" unicode="&#x1ef2;" horiz-adv-x="508" 
d="M315 690q-17 0 -33 9t-44 39l-85 89l61 11l127 -148h-26zM508 640l-223 -336v-304h-62v304l-223 336h73l181 -277l181 277h73z" />
    <glyph glyph-name="ygrave" unicode="&#x1ef3;" horiz-adv-x="442" 
d="M282 524q-18 0 -34 9t-44 39l-85 89l62 11l127 -148h-26zM373 444h64l-281 -654h-62l96 220l-185 434h64l152 -364z" />
    <glyph glyph-name="uni1EF4" unicode="&#x1ef4;" horiz-adv-x="508" 
d="M223 0v304l-223 336h73l181 -277l181 277h73l-223 -336v-304h-62zM254 -64q19 0 32.5 -13.5t13.5 -32t-13.5 -32t-32.5 -13.5t-32.5 13.5t-13.5 32t13.5 32t32.5 13.5z" />
    <glyph glyph-name="uni1EF5" unicode="&#x1ef5;" horiz-adv-x="442" 
d="M373 444h64l-281 -654h-62l96 220l-185 434h64l152 -364zM309 -64q19 0 32.5 -13.5t13.5 -32t-13.5 -32t-32.5 -13.5t-32 13.5t-13 32t13 32t32 13.5z" />
    <glyph glyph-name="uni1EF8" unicode="&#x1ef8;" horiz-adv-x="508" 
d="M204 738q-31 0 -50 -36l-37 24q10 16 17 25t25 20t39 11q26 0 58.5 -20.5t50.5 -20.5q29 0 45 39l40 -21q-29 -62 -83 -62q-26 0 -56.5 20.5t-48.5 20.5zM508 640l-223 -336v-304h-62v304l-223 336h73l181 -277l181 277h73z" />
    <glyph glyph-name="uni1EF9" unicode="&#x1ef9;" horiz-adv-x="442" 
d="M170 572q-30 0 -50 -36l-36 24q10 16 17 25t24.5 20t39.5 11q25 0 57.5 -20.5t50.5 -20.5q30 0 46 39l40 -21q-30 -62 -84 -62q-25 0 -56 20.5t-49 20.5zM373 444h64l-280 -654h-63l97 220l-186 434h64l152 -364z" />
    <glyph glyph-name="uni2009" unicode="&#x2009;" horiz-adv-x="10" 
 />
    <glyph glyph-name="endash" unicode="&#x2013;" horiz-adv-x="501" 
d="M49 260v52h403v-52h-403z" />
    <glyph glyph-name="emdash" unicode="&#x2014;" horiz-adv-x="742" 
d="M49 260v52h644v-52h-644z" />
    <glyph glyph-name="quoteleft" unicode="&#x2018;" horiz-adv-x="206" 
d="M149 657l13 -31q-35 -18 -53.5 -44.5t-18.5 -51.5q21 8 40.5 -3.5t19.5 -35.5q0 -21 -13.5 -34.5t-35.5 -13.5q-27 0 -42.5 22.5t-14.5 54.5q1 41 27 79.5t78 57.5z" />
    <glyph glyph-name="quoteright" unicode="&#x2019;" horiz-adv-x="206" 
d="M57 440l-13 31q35 18 53.5 44.5t18.5 51.5q-20 -8 -40 3.5t-20 35.5q0 21 13.5 34.5t35.5 13.5q27 0 42.5 -22.5t14.5 -54.5q-1 -41 -26.5 -79.5t-78.5 -57.5z" />
    <glyph glyph-name="quotesinglbase" unicode="&#x201a;" horiz-adv-x="257" 
d="M82 -130l-12 31q35 18 53.5 45t18.5 52q-21 -8 -40.5 3.5t-19.5 35.5q0 20 13 33.5t36 13.5q26 0 42 -22t15 -54q-2 -41 -27.5 -79.5t-78.5 -58.5z" />
    <glyph glyph-name="quotedblleft" unicode="&#x201c;" horiz-adv-x="352" 
d="M149 657l13 -31q-35 -18 -53.5 -45t-18.5 -52q21 8 40.5 -3t19.5 -36q0 -20 -13.5 -33.5t-35.5 -13.5q-27 0 -42.5 22.5t-14.5 53.5q1 41 27 79.5t78 58.5zM295 657l13 -31q-35 -18 -53.5 -45t-18.5 -52q20 8 40 -3.5t20 -35.5q0 -20 -13.5 -33.5t-35.5 -13.5
q-27 0 -42.5 22.5t-14.5 53.5q1 41 26.5 79.5t78.5 58.5z" />
    <glyph glyph-name="quotedblright" unicode="&#x201d;" horiz-adv-x="352" 
d="M57 440l-13 31q35 18 53.5 44.5t18.5 51.5q-20 -8 -40 3.5t-20 35.5q0 21 13.5 34.5t35.5 13.5q27 0 42.5 -22.5t14.5 -54.5q-1 -41 -26.5 -79t-78.5 -58zM203 440l-13 31q35 18 53.5 44.5t18.5 52.5q-21 -9 -40.5 2.5t-19.5 35.5q0 21 13.5 34.5t35.5 13.5
q27 0 42.5 -22.5t14.5 -54.5q-1 -41 -27 -79t-78 -58z" />
    <glyph glyph-name="quotedblbase" unicode="&#x201e;" horiz-adv-x="403" 
d="M82 -136l-12 31q35 18 53.5 45t18.5 52q-21 -8 -40.5 3.5t-19.5 35.5q0 20 13 33.5t36 13.5q26 0 42 -22.5t15 -53.5q-2 -41 -27.5 -79.5t-78.5 -58.5zM228 -136l-13 31q36 18 54.5 45t17.5 52q-20 -8 -39.5 3.5t-19.5 35.5q0 20 13 33.5t36 13.5q26 0 41.5 -22.5
t14.5 -53.5q-1 -41 -26.5 -79.5t-78.5 -58.5z" />
    <glyph glyph-name="dagger" unicode="&#x2020;" horiz-adv-x="404" 
d="M363 499v-53h-131v-555h-60v555h-131v53h131v181h60v-181h131z" />
    <glyph glyph-name="daggerdbl" unicode="&#x2021;" horiz-adv-x="404" 
d="M371 125v-53h-139v-181h-60v181h-123v53h123v321h-131v53h131v181h60v-181h131v-53h-131v-321h139z" />
    <glyph glyph-name="bullet" unicode="&#x2022;" horiz-adv-x="299" 
d="M151 243q-34 0 -58 24t-24 57.5t24 57.5t58 24t58 -24t24 -57.5t-24 -57.5t-58 -24z" />
    <glyph glyph-name="ellipsis" unicode="&#x2026;" horiz-adv-x="588" 
d="M115 -6q-19 0 -32 13.5t-13 32t13 32t32 13.5t32.5 -13.5t13.5 -32t-13.5 -32t-32.5 -13.5zM294 -6q-19 0 -32.5 13.5t-13.5 32t13.5 32t32.5 13.5t32.5 -13.5t13.5 -32t-13.5 -32t-32.5 -13.5zM473 -6q-19 0 -32.5 13.5t-13.5 32t13.5 32t32.5 13.5t32.5 -13.5t13.5 -32
t-13.5 -32t-32.5 -13.5z" />
    <glyph glyph-name="perthousand" unicode="&#x2030;" horiz-adv-x="1164" 
d="M204.5 250q-66.5 0 -105.5 55t-39 145t39 145t105.5 55t105.5 -55t39 -145t-39 -145t-105.5 -55zM181 0l409 640h53l-409 -640h-53zM205 295q43 0 66.5 44t23.5 111t-23.5 111t-67 44t-67 -44t-23.5 -111t23.5 -111t67.5 -44zM630 -10q-66 0 -105.5 55t-39.5 145
t39.5 145t105.5 55t105.5 -55t39.5 -145t-39.5 -145t-105.5 -55zM959.5 -10q-66.5 0 -105.5 55t-39 145t39 145t105.5 55t105.5 -55t39 -145t-39 -145t-105.5 -55zM630 35q44 0 67.5 44t23.5 111t-23.5 111t-67.5 44t-67.5 -44t-23.5 -111t23.5 -111t67.5 -44zM959 35
q44 0 67.5 44t23.5 111t-23.5 111t-67 44t-67 -44t-23.5 -111t23.5 -111t66.5 -44z" />
    <glyph glyph-name="second" unicode="&#x2033;" horiz-adv-x="600" 
 />
    <glyph glyph-name="guilsinglleft" unicode="&#x2039;" horiz-adv-x="290" 
d="M250 420l-153 -178l153 -178h-59l-151 178l151 178h59z" />
    <glyph glyph-name="guilsinglright" unicode="&#x203a;" horiz-adv-x="290" 
d="M99 420l151 -178l-151 -178h-59l153 178l-153 178h59z" />
    <glyph glyph-name="fraction" unicode="&#x2044;" horiz-adv-x="125" 
d="M-157 0l409 640h53l-409 -640h-53z" />
    <glyph glyph-name="uni2070" unicode="&#x2070;" horiz-adv-x="389" 
d="M194.5 350q-66.5 0 -105.5 55t-39 145t39 145t105.5 55t105.5 -55t39 -145t-39 -145t-105.5 -55zM195 395q43 0 66.5 44t23.5 111t-23.5 111t-67 44t-67 -44t-23.5 -111t23.5 -111t67.5 -44z" />
    <glyph glyph-name="uni2074" unicode="&#x2074;" horiz-adv-x="343" 
d="M323 488v-45h-44v-83h-52v83h-183l-14 40l156 257h56l-153 -252h138v107h52v-107h44z" />
    <glyph glyph-name="uni2075" unicode="&#x2075;" horiz-adv-x="365" 
d="M191 595q55 0 90 -33t34 -89q0 -50 -38 -86.5t-101 -36.5q-82 0 -136 57l30 39q15 -16 23 -23t31.5 -17.5t50.5 -10.5q40 0 63 23.5t23 55.5q0 34 -21 54.5t-54 21.5q-39 0 -69 -24l-50 21l36 193h189v-45h-150l-23 -123q28 23 72 23z" />
    <glyph glyph-name="uni2076" unicode="&#x2076;" horiz-adv-x="369" 
d="M186 350q-61 0 -98.5 35.5t-37.5 88.5q-1 45 18.5 82.5t95.5 147.5q16 23 24 36h61l-111 -157q15 17 60 17q51 0 86.5 -34t35.5 -89q0 -54 -38 -90.5t-96 -36.5zM185 395q34 0 57.5 23t23.5 57t-23.5 57t-57.5 23q-35 0 -58 -23.5t-23 -56.5q0 -34 23 -57t58 -23z" />
    <glyph glyph-name="uni2077" unicode="&#x2077;" horiz-adv-x="334" 
d="M40 740h255v-30l-164 -350h-57l157 335h-191v45z" />
    <glyph glyph-name="uni2078" unicode="&#x2078;" horiz-adv-x="371" 
d="M240 564q38 -12 59.5 -39t21.5 -63q0 -45 -35 -78.5t-100.5 -33.5t-100.5 33.5t-35 78.5q0 36 21.5 63t60.5 39q-66 25 -66 88q0 40 33.5 69t86.5 29t86 -29t33 -69q0 -63 -65 -88zM185.5 705q-28.5 0 -47.5 -16.5t-19 -42.5t19 -43t47.5 -17t47.5 17t19 43t-19 42.5
t-47.5 16.5zM186 395q34 0 57.5 20.5t23.5 51t-23.5 51.5t-58 21t-58 -21t-23.5 -51.5t23.5 -51t58.5 -20.5z" />
    <glyph glyph-name="uni2079" unicode="&#x2079;" horiz-adv-x="369" 
d="M183 750q62 0 99.5 -35.5t37.5 -88.5q0 -45 -19.5 -82.5t-94.5 -146.5q-16 -24 -25 -37h-60l110 158q-15 -18 -60 -18q-51 0 -86 34.5t-35 89.5q0 53 37.5 89.5t95.5 36.5zM185 705q-34 0 -57.5 -23t-23.5 -57q0 -33 23.5 -56.5t57.5 -23.5t57.5 24t23.5 56
q0 34 -23.5 57t-57.5 23z" />
    <glyph glyph-name="uni2080" unicode="&#x2080;" horiz-adv-x="389" 
d="M194.5 -110q-66.5 0 -105.5 55t-39 145t39 145t105.5 55t105.5 -55t39 -145t-39 -145t-105.5 -55zM195 -65q43 0 66.5 44t23.5 111t-23.5 111t-67 44t-67 -44t-23.5 -111t23.5 -111t67.5 -44z" />
    <glyph glyph-name="uni2081" unicode="&#x2081;" horiz-adv-x="236" 
d="M138 280h48l-1 -380h-51v323l-92 -57l-22 39z" />
    <glyph glyph-name="uni2082" unicode="&#x2082;" horiz-adv-x="363" 
d="M138 -55h175v-45h-261v30l154 157q22 23 34 43t12 45q0 30 -19.5 50t-52.5 20q-21 0 -40 -10.5t-27.5 -19.5t-21.5 -26l-38 29q18 28 51 50t76 22q56 0 91 -31.5t35 -82.5q0 -58 -52 -112z" />
    <glyph glyph-name="uni2083" unicode="&#x2083;" horiz-adv-x="364" 
d="M175 119q57 4 98.5 -26.5t41.5 -85.5q-1 -51 -39 -84t-104 -33q-73 0 -132 53l30 38q44 -46 102 -46q40 0 63.5 19.5t24.5 50.5q2 50 -45 71q-37 16 -88 -3l-20 33l117 129h-163v45h238v-24z" />
    <glyph glyph-name="uni2084" unicode="&#x2084;" horiz-adv-x="343" 
d="M323 28v-45h-44v-83h-52v83h-183l-14 40l156 257h56l-153 -252h138v107h52v-107h44z" />
    <glyph glyph-name="uni2085" unicode="&#x2085;" horiz-adv-x="365" 
d="M191 135q55 0 90 -33t34 -89q0 -50 -38 -86.5t-101 -36.5q-82 0 -136 57l30 39q15 -16 23 -23t31.5 -17.5t50.5 -10.5q40 0 63 23.5t23 55.5q0 34 -21 54.5t-54 21.5q-39 0 -69 -24l-50 21l36 193h189v-45h-150l-23 -123q28 23 72 23z" />
    <glyph glyph-name="uni2086" unicode="&#x2086;" horiz-adv-x="369" 
d="M186 -110q-61 0 -98.5 35.5t-37.5 88.5q-1 45 18.5 82.5t95.5 147.5q16 23 24 36h61l-111 -157q15 17 60 17q51 0 86.5 -34t35.5 -89q0 -54 -38 -90.5t-96 -36.5zM185 -65q34 0 57.5 23t23.5 57t-23.5 57t-57.5 23q-35 0 -58 -23.5t-23 -56.5q0 -34 23 -57t58 -23z" />
    <glyph glyph-name="uni2087" unicode="&#x2087;" horiz-adv-x="334" 
d="M40 280h255v-30l-164 -350h-57l157 335h-191v45z" />
    <glyph glyph-name="uni2088" unicode="&#x2088;" horiz-adv-x="371" 
d="M240 104q38 -12 59.5 -39t21.5 -63q0 -45 -35 -78.5t-100.5 -33.5t-100.5 33.5t-35 78.5q0 36 21.5 63t60.5 39q-66 25 -66 88q0 40 33.5 69t86.5 29t86 -29t33 -69q0 -63 -65 -88zM185.5 245q-28.5 0 -47.5 -16.5t-19 -42.5t19 -43t47.5 -17t47.5 17t19 43t-19 42.5
t-47.5 16.5zM186 -65q34 0 57.5 20.5t23.5 51t-23.5 51.5t-58 21t-58 -21t-23.5 -51.5t23.5 -51t58.5 -20.5z" />
    <glyph glyph-name="uni2089" unicode="&#x2089;" horiz-adv-x="369" 
d="M183 290q62 0 99.5 -35.5t37.5 -88.5q0 -45 -19.5 -82.5t-94.5 -146.5q-16 -24 -25 -37h-60l110 158q-15 -18 -60 -18q-51 0 -86 34.5t-35 89.5q0 53 37.5 89.5t95.5 36.5zM185 245q-34 0 -57.5 -23t-23.5 -57q0 -33 23.5 -56.5t57.5 -23.5t57.5 24t23.5 56
q0 34 -23.5 57t-57.5 23z" />
    <glyph glyph-name="Euro" unicode="&#x20ac;" horiz-adv-x="521" 
d="M372 41q51 0 88 16l21 -50q-44 -18 -109 -18q-116 0 -198 70t-106 182h-61v41h55q-2 19 -2 39t1 39h-54v40h61q23 112 105.5 182.5t198.5 70.5q63 0 109 -18l-21 -50q-37 16 -88 16q-91 0 -155 -56t-85 -145h246l-16 -40h-238q-2 -19 -2 -39t3 -39h206l-16 -41h-183
q22 -89 85.5 -144.5t154.5 -55.5z" />
    <glyph glyph-name="uni2113" unicode="&#x2113;" horiz-adv-x="463" 
d="M345 92l29 -34q-2 -3 -6 -7.5t-17 -17t-27 -21.5t-36 -16.5t-45 -7.5q-55 0 -81.5 33.5t-26.5 88.5v104q-13 -9 -27 -19l-18 35q24 16 45 32v249q0 68 30.5 105.5t81.5 37.5q47 0 72.5 -35.5t26.5 -88.5q0 -85 -58 -167q-39 -57 -94 -103v-142q0 -43 13.5 -61t42.5 -18
q26 0 49.5 13.5t34.5 26.5zM194 508v-195q35 34 60 76q41 68 41 130q1 35 -12 56.5t-37 21.5q-52 0 -52 -89z" />
    <glyph glyph-name="uni2116" unicode="&#x2116;" horiz-adv-x="1069" 
d="M829.5 321q-74.5 0 -122 48t-47.5 118t47.5 118t122 48t122 -48t47.5 -118t-47.5 -118t-122 -48zM532 104v536h61v-640h-59l-384 538v-538h-60v640h58zM829.5 605q-49.5 0 -80.5 -34t-31 -84q0 -49 31 -83.5t80.5 -34.5t81 34.5t31.5 83.5q0 50 -31.5 84t-81 34zM672 222
v43h315v-43h-315z" />
    <glyph glyph-name="trademark" unicode="&#x2122;" horiz-adv-x="616" 
d="M241 640v-36h-78v-244h-41v244h-78v36h197zM533 640h39v-280h-39v216l-98 -142l-99 142v-216h-38v280h38l98 -147z" />
    <glyph glyph-name="uni2126" unicode="&#x2126;" horiz-adv-x="795" 
d="M512 108v-56h180v-52h-237v146q86 9 137 70t51 144q0 101 -68.5 172t-177 71t-177 -71t-68.5 -172q0 -83 51.5 -144t137.5 -70v-146h-238v52h180v56q-87 24 -140 96t-53 166q0 121 86.5 203t221.5 82t221.5 -82t86.5 -203q0 -94 -53 -166t-141 -96z" />
    <glyph glyph-name="estimated" unicode="&#x212e;" horiz-adv-x="809" 
d="M404 -12q-154 0 -249 91.5t-95 241.5t96.5 242t247.5 92q156 0 247 -89.5t98 -253.5h-540q-5 0 -7.5 -1t-5 -5t-2.5 -11v-163q0 -14 16 -33.5t42 -38.5t67 -32.5t85 -13.5q64 0 123 29.5t99 76.5h68q-65 -75 -129 -103.5t-161 -28.5zM209 332h389q10 0 13 3.5t3 12.5v170
q0 25 -32.5 51.5t-82 43.5t-96.5 17q-42 0 -82.5 -12t-67 -29.5t-43 -35t-16.5 -28.5v-184q0 -9 15 -9z" />
    <glyph glyph-name="partialdiff" unicode="&#x2202;" horiz-adv-x="545" 
d="M263 -12q-97 0 -150 59.5t-53 143.5q0 80 50.5 139t140.5 59q64 0 112.5 -32.5t68.5 -73.5q1 143 -54.5 233t-147.5 129l24 46q106 -49 168.5 -152.5t62.5 -249.5q0 -133 -61 -217t-161 -84zM261 36q68 1 110.5 49.5t51.5 127.5q-11 46 -60.5 87t-108.5 41
q-37 0 -65.5 -15t-43.5 -39t-22 -49t-7 -51q0 -61 39 -106t106 -45z" />
    <glyph glyph-name="emptyset" unicode="&#x2205;" horiz-adv-x="633" 
d="M505 432q68 -74 68 -179q0 -109 -72.5 -184.5t-184.5 -75.5q-91 0 -159 54l-47 -52l-29 26l47 52q-68 74 -68 180q0 108 72.5 183.5t183.5 75.5q92 0 160 -53l46 51l30 -26zM103 253q0 -86 54 -148l291 322q-57 45 -132 45q-91 0 -152 -64t-61 -155zM316 33q92 0 153 64
t61 156q0 85 -54 147l-291 -322q57 -45 131 -45z" />
    <glyph glyph-name="uni2206" unicode="&#x2206;" horiz-adv-x="584" 
d="M323 640l251 -597v-43h-564v43l251 597h62zM292 570l-213 -519h425z" />
    <glyph glyph-name="product" unicode="&#x220f;" horiz-adv-x="711" 
d="M621 640v-45h-88v-695h-55v695h-245v-695h-54v695h-89v45h531z" />
    <glyph glyph-name="summation" unicode="&#x2211;" horiz-adv-x="639" 
d="M550 690v-45h-396l229 -375l-229 -375h396v-45h-460v39l233 381l-233 381v39h460z" />
    <glyph glyph-name="minus" unicode="&#x2212;" horiz-adv-x="501" 
d="M49 260v52h403v-52h-403z" />
    <glyph glyph-name="uni2215" unicode="&#x2215;" horiz-adv-x="125" 
d="M-157 0l409 640h53l-409 -640h-53z" />
    <glyph glyph-name="uni2219" unicode="&#x2219;" horiz-adv-x="211" 
d="M105 230q-19 0 -32 13.5t-13 32.5t13 32t32 13t32.5 -13t13.5 -32t-13.5 -32.5t-32.5 -13.5z" />
    <glyph glyph-name="radical" unicode="&#x221a;" horiz-adv-x="451" 
d="M391 690h50l-188 -840h-42l-146 301l-41 -20l-19 41l86 43l131 -282z" />
    <glyph glyph-name="infinity" unicode="&#x221e;" horiz-adv-x="692" 
d="M516 418q36 0 64 -13t43 -33.5t22.5 -42.5t7.5 -45t-7.5 -45.5t-22.5 -43t-43 -33t-64 -12.5q-42 0 -81.5 26.5t-88.5 74.5q-48 -48 -87.5 -74.5t-82.5 -26.5q-36 0 -63.5 12.5t-42.5 33t-22.5 43t-7.5 45.5t7.5 45t22.5 42.5t42.5 33.5t63.5 13q43 0 82.5 -26.5
t87.5 -74.5q49 48 88.5 74.5t81.5 26.5zM178 198q31 0 62 22t73 64q-42 42 -73 64t-62 22q-36 0 -61 -21.5t-25 -64.5t25 -64.5t61 -21.5zM515 198q36 0 61 21t25 64.5t-25 65t-61 21.5q-31 0 -62.5 -22t-73.5 -64q42 -42 73.5 -64t62.5 -22z" />
    <glyph glyph-name="integral" unicode="&#x222b;" horiz-adv-x="233" 
d="M66 -150q-24 0 -40.5 11t-15.5 28q0 15 7.5 24.5t21.5 9.5q13 0 25 -14t19 -14q21 0 21 56v611q0 54 24 91t69 37q24 0 40 -11t16 -28q0 -15 -8 -24.5t-21.5 -9.5t-23.5 14t-17 14q-25 0 -25 -70v-597q0 -54 -23.5 -91t-68.5 -37z" />
    <glyph glyph-name="approxequal" unicode="&#x2248;" horiz-adv-x="498" 
d="M338 300q-36 0 -89.5 28t-83.5 27q-20 0 -40.5 -14t-28 -23.5t-12.5 -17.5l-35 30q20 32 49 53.5t62 21.5q34 0 89 -27.5t82 -27.5q30 0 52 19.5t30 35.5l34 -33q-44 -72 -109 -72zM340 167q-37 0 -90 27.5t-83 27.5q-20 0 -40.5 -14t-28 -23.5t-12.5 -17.5l-35 30
q20 32 49 53.5t62 21.5q34 0 89 -27.5t82 -27.5q30 0 52 19.5t30 35.5l33 -33q-43 -72 -108 -72z" />
    <glyph glyph-name="notequal" unicode="&#x2260;" horiz-adv-x="501" 
d="M452 335h-147l-62 -96h209v-52h-244l-42 -63h-46l42 63h-113v52h147l62 96h-209v52h244l41 62h47l-41 -62h112v-52z" />
    <glyph glyph-name="lessequal" unicode="&#x2264;" horiz-adv-x="505" 
d="M456 479v-58l-341 -135l341 -136v-58l-407 169v49zM53 8v52h402v-52h-402z" />
    <glyph glyph-name="greaterequal" unicode="&#x2265;" horiz-adv-x="505" 
d="M49 479l407 -169v-49l-407 -169v58l341 136l-341 135v58zM50 8v52h403v-52h-403z" />
    <glyph glyph-name="lozenge" unicode="&#x25ca;" horiz-adv-x="535" 
d="M250 -37l-190 357l190 357h34l191 -357l-191 -357h-34zM267 19l155 301l-155 301l-154 -301z" />
    <glyph glyph-name="uniE132" unicode="&#xe132;" horiz-adv-x="398" 
d="M137 572q-28 -30 -44 -39t-33 -9h-26l127 148l61 -11zM344 565q-28 -30 -44 -39t-33 -9h-26l126 148l62 -11zM75 0v444h58v-444h-58zM340 444v-525q0 -129 -108 -129q-26 0 -35 7l6 51q6 -6 27 -6q20 0 35 16t15 56v530h60z" />
    <glyph glyph-name="uniF8FF" unicode="&#xf8ff;" horiz-adv-x="819" 
d="M90 0v640h640v-640h-640zM172 250h168v-168h140v168h168v140h-168v168h-140v-168h-168v-140z" />
    <glyph glyph-name="Jacute" horiz-adv-x="438" 
d="M356 728q-28 -30 -44 -39t-33 -9h-26l127 148l61 -11zM191 -11q-79 0 -141 58l36 50q45 -52 103 -52q49 0 76 33t27 94v468h62v-463q0 -95 -45.5 -141.5t-117.5 -46.5z" />
    <glyph glyph-name="i.loclTRK" horiz-adv-x="207" 
d="M104 542q-19 0 -32.5 13.5t-13.5 32.5t13.5 32.5t32.5 13.5t32 -13.5t13 -32.5t-13 -32.5t-32 -13.5zM75 0v444h58v-444h-58z" />
    <glyph glyph-name="jacute" horiz-adv-x="191" 
d="M137 565q-29 -30 -45 -39t-33 -9h-26l127 148l61 -11zM133 444v-525q0 -129 -108 -129q-27 0 -35 7l6 51q6 -6 27 -6q20 0 35 16t15 56v530h60z" />
    <glyph glyph-name="i.TRK" horiz-adv-x="207" 
d="M104 542q-19 0 -32.5 13.5t-13.5 32.5t13.5 32.5t32.5 13.5t32 -13.5t13 -32.5t-13 -32.5t-32 -13.5zM75 0v444h58v-444h-58z" />
    <glyph glyph-name="f_f_ij" horiz-adv-x="937" 
d="M361 557q0 67 31 102t83 35q38 0 69 -19l-24 -46q-20 13 -42 13q-57 0 -57 -84v-114h92v-50h-92v-394h-60v394h-205v-394h-60v394h-55v50h55v113q0 67 31 102t83 35q41 0 78 -24l-28 -45q-22 17 -47 17q-57 0 -57 -84v-114h205v113zM849 638q19 0 32.5 -13.5t13.5 -32.5
t-13.5 -32.5t-32.5 -13.5t-32 13.5t-13 32.5t13 32.5t32 13.5zM642 636q19 0 32.5 -13t13.5 -32t-13.5 -32.5t-32.5 -13.5t-32 13.5t-13 32.5t13 32t32 13zM610 0v444h58v-444h-58zM819 -86l1 530h59v-525q0 -129 -108 -129q-26 0 -35 7l6 51q7 -6 27 -6q21 0 35.5 16
t14.5 56z" />
    <glyph glyph-name="f_i" horiz-adv-x="484" 
d="M96 557q0 67 30.5 102t82.5 35q38 0 70 -19l-25 -46q-20 13 -41 13q-57 0 -57 -84v-114h92v-50h-92v-394h-60v394h-55v50h55v113zM381 638q19 0 32 -13.5t13 -32.5t-13 -32t-32 -13t-32.5 13t-13.5 32t13.5 32.5t32.5 13.5zM348 0v444h58v-444h-58z" />
    <glyph glyph-name="f_ij" horiz-adv-x="667" 
d="M96 557q0 67 30.5 102t82.5 35q38 0 70 -19l-25 -46q-20 13 -41 13q-57 0 -57 -84v-114h92v-50h-92v-394h-60v394h-55v50h55v113zM381 638q19 0 32 -13.5t13 -32.5t-13 -32t-32 -13t-32.5 13t-13.5 32t13.5 32.5t32.5 13.5zM579.5 638q18.5 0 32 -13.5t13.5 -32.5
t-13.5 -32t-32 -13t-32 13t-13.5 32t13.5 32.5t32 13.5zM348 0v444h58v-444h-58zM550 -86v530h59v-524q0 -130 -107 -130q-27 0 -35 7l5 51q7 -6 28 -6q20 0 35 16t15 56z" />
    <glyph glyph-name="f_l" horiz-adv-x="506" 
d="M98 557q0 67 30.5 102t82.5 35q38 0 70 -19l-20 -49q-21 16 -46 16q-57 0 -57 -84v-114h92v-50h-92v-394h-60v394h-57v50h57v113zM371 680h60v-680h-60v680z" />
    <glyph glyph-name="zero.lf" horiz-adv-x="587" 
d="M293.5 -10q-106.5 0 -170 91t-63.5 240t63.5 241t170 92t170.5 -92t64 -241t-64 -240t-170.5 -91zM294 41.5q83 0.5 127 78.5t44 201.5t-44 202t-127 78.5t-127.5 -78.5t-44.5 -202.5q0 -123 44.5 -201.5t127.5 -78z" />
    <glyph glyph-name="one.lf" horiz-adv-x="379" 
d="M246 640h53v-640h-59v571l-163 -104l-27 49l196 124v0z" />
    <glyph glyph-name="two.lf" horiz-adv-x="537" 
d="M147 52h330v-52h-417v43l258 270q38 40 59.5 77t21.5 82q0 54 -38 91.5t-96 37.5q-85 1 -142 -82l-45 32q27 41 73 72t114 30q91 -1 144 -52t53 -127q0 -58 -25.5 -104t-71.5 -92z" />
    <glyph glyph-name="three.lf" 
d="M262 370q96 7 161.5 -45t64.5 -143q0 -85 -61 -139t-166 -54q-124 0 -211 82l36 48q37 -37 77 -57.5t98 -20.5q75 0 119.5 40.5t45.5 100.5q0 46 -24.5 80t-63.5 49q-32 14 -68.5 14t-71.5 -7l-20 32l208 238h-302v52h379v-41z" />
    <glyph glyph-name="four.lf" horiz-adv-x="557" 
d="M517 205v-52h-67v-153h-60v153h-326l-14 43l270 444h65l-266 -435h271v191h60v-191h67z" />
    <glyph glyph-name="five.lf" horiz-adv-x="538" 
d="M269 391q90 2 150 -53t60 -146q-1 -84 -60.5 -143t-162.5 -59q-122 -1 -206 82l34 49q69 -79 169 -79q76 0 119 44t44 106q0 66 -43 106.5t-110 40.5q-14 1 -26.5 -1t-22 -4.5t-19 -6t-15.5 -7t-12.5 -8t-9.5 -7t-6.5 -6l-3.5 -3.5l-51 22l54 322h293v-52h-242l-40 -225
q43 28 107 28z" />
    <glyph glyph-name="six.lf" horiz-adv-x="557" 
d="M281 -11q-100 0 -160.5 59.5t-60.5 147.5q-1 27 1.5 47t14.5 49.5t21.5 49.5t40.5 68t54.5 82.5t78.5 114.5q15 22 23 33h66l-187 -274q41 40 117 40q87 0 147 -58t60 -151q0 -87 -61 -147.5t-155 -60.5zM279 41q65 0 110.5 45.5t45.5 111.5q0 65 -45.5 110.5
t-110.5 45.5q-67 0 -112 -46t-45 -110q0 -67 45 -112t112 -45z" />
    <glyph glyph-name="seven.lf" horiz-adv-x="516" 
d="M50 640h416v-42l-274 -598h-66l276 588h-352v52z" />
    <glyph glyph-name="eight.lf" horiz-adv-x="562" 
d="M369 345q63 -20 98 -65t35 -104q0 -35 -13.5 -67.5t-39.5 -59.5t-69.5 -43.5t-98.5 -16.5t-98.5 16.5t-69.5 43.5t-39.5 59.5t-13.5 67.5q0 58 35 103.5t97 65.5q-105 41 -105 145q0 67 54 115t140 48t140 -48t54 -115q0 -104 -106 -145zM148 487q0 -51 38 -85t94.5 -34
t95 34t38.5 85q0 50 -38 82t-95 32t-95 -32t-38 -82zM281 41q68 0 113.5 39.5t45.5 98.5q0 58 -46 97t-113 39q-66 0 -112.5 -39t-46.5 -97q0 -59 45.5 -98.5t113.5 -39.5z" />
    <glyph glyph-name="nine.lf" horiz-adv-x="557" 
d="M276 651q100 0 160.5 -59t60.5 -148q0 -27 -2 -47t-14 -49.5t-21.5 -49t-41 -68t-54.5 -83t-79 -114.5q-14 -22 -22 -33h-66l187 274q-41 -40 -117 -40q-87 0 -147 58.5t-60 151.5q0 87 61 147t155 60zM278 599q-65 0 -110.5 -45t-45.5 -111t45.5 -111.5t110.5 -45.5
q67 0 112 46.5t45 110.5q0 66 -45 111t-112 45z" />
    <glyph glyph-name="zero.osf" horiz-adv-x="630" 
d="M315 -12q-109 0 -182 73.5t-73 186.5q0 112 73 184.5t182 72.5q110 0 183 -72.5t73 -184.5q0 -113 -73 -186.5t-183 -73.5zM315 40q87 0 140 60.5t53 147.5q0 86 -53 145.5t-140 59.5t-140 -59.5t-53 -145.5q0 -87 53 -147.5t140 -60.5z" />
    <glyph glyph-name="one.osf" horiz-adv-x="379" 
d="M246 490h53v-490h-59v424l-163 -104l-27 45l196 125v-1v1z" />
    <glyph glyph-name="two.osf" horiz-adv-x="537" 
d="M165 52h312v-52h-417v45l174 115q28 17 36 22.5t31 21.5t31.5 24.5t24 23.5t21.5 27t11.5 28t5.5 32q0 55 -36.5 84.5t-94.5 29.5q-85 1 -141 -81l-47 32q27 41 73 71.5t115 29.5q90 -1 142 -45.5t52 -119.5q0 -35 -13 -65.5t-40 -57.5t-53.5 -46t-69.5 -46z" />
    <glyph glyph-name="three.osf" horiz-adv-x="558" 
d="M272 219q96 8 161.5 -44t64.5 -144q0 -84 -61 -138t-166 -54q-124 0 -211 82l36 48q37 -37 77 -57.5t98 -20.5q75 0 119.5 40.5t45.5 99.5q0 47 -24.5 81t-63.5 49q-32 13 -68.5 13.5t-71.5 -6.5l-20 32l208 238h-302v52h379v-41z" />
    <glyph glyph-name="four.osf" horiz-adv-x="587" 
d="M527 52v-52h-67v-152h-60v152h-326l-14 43l270 445h65l-266 -436h271v192h60v-192h67z" />
    <glyph glyph-name="five.osf" 
d="M279 241q90 1 150 -54t60 -146q-1 -84 -60.5 -143t-162.5 -59q-122 0 -206 83l34 49q69 -80 169 -80q76 0 119 44.5t44 106.5q0 66 -43 106t-110 41q-14 0 -26.5 -1.5t-22 -4t-19 -6.5t-15.5 -7.5t-12.5 -7.5t-9.5 -7t-6.5 -6l-3.5 -3l-51 22l54 322h293v-52h-242
l-40 -225q43 27 107 28z" />
    <glyph glyph-name="six.osf" horiz-adv-x="557" 
d="M281 -11q-100 0 -160.5 59.5t-60.5 147.5q-1 27 1.5 47t14.5 49.5t21.5 49.5t40.5 68t54.5 82.5t78.5 114.5q15 22 23 33h66l-187 -274q41 40 117 40q87 0 147 -58t60 -151q0 -87 -61 -147.5t-155 -60.5zM279 41q65 0 110.5 45.5t45.5 111.5q0 65 -45.5 110.5
t-110.5 45.5q-67 0 -112 -46t-45 -110q0 -67 45 -112t112 -45z" />
    <glyph glyph-name="seven.osf" horiz-adv-x="536" 
d="M60 490h416v-42l-274 -598h-66l276 588h-352v52z" />
    <glyph glyph-name="eight.osf" horiz-adv-x="562" 
d="M369 345q63 -20 98 -65t35 -104q0 -35 -13.5 -67.5t-39.5 -59.5t-69.5 -43.5t-98.5 -16.5t-98.5 16.5t-69.5 43.5t-39.5 59.5t-13.5 67.5q0 58 35 103.5t97 65.5q-105 41 -105 145q0 67 54 115t140 48t140 -48t54 -115q0 -104 -106 -145zM148 487q0 -51 38 -85t94.5 -34
t95 34t38.5 85q0 50 -38 82t-95 32t-95 -32t-38 -82zM281 41q68 0 113.5 39.5t45.5 98.5q0 58 -46 97t-113 39q-66 0 -112.5 -39t-46.5 -97q0 -59 45.5 -98.5t113.5 -39.5z" />
    <glyph glyph-name="nine.osf" horiz-adv-x="557" 
d="M276 503q100 0 160.5 -59t60.5 -148q0 -27 -2 -47t-14 -49.5t-21.5 -49t-41 -68t-54.5 -82.5t-79 -115l-22 -33h-66l187 274q-41 -40 -117 -40q-87 0 -147 58.5t-60 151.5q0 87 61 147t155 60zM278 451q-65 0 -110.5 -45t-45.5 -111t45.5 -111.5t110.5 -45.5
q67 0 112 46.5t45 110.5q0 66 -45 111t-112 45z" />
    <glyph glyph-name="zero.tf" horiz-adv-x="534" 
d="M267 -10q-107 0 -170.5 91t-63.5 240t63.5 241t170.5 92t170.5 -92t63.5 -241t-63.5 -240t-170.5 -91zM267 41.5q83 0.5 127 78.5t44 201.5t-44 202t-127 78.5t-127 -78.5t-44 -202.5q0 -123 44 -201.5t127 -78z" />
    <glyph glyph-name="one.tf" horiz-adv-x="534" 
d="M273 640h53v-640h-60v571l-162 -104l-28 49l197 124v0z" />
    <glyph glyph-name="two.tf" horiz-adv-x="534" 
d="M121 52h331v-52h-418v43l258 270q39 40 60 77t21 82q0 54 -37.5 91.5t-95.5 37.5q-85 1 -142 -82l-46 32q27 41 73.5 72t114.5 30q91 -1 143.5 -52t52.5 -127q0 -58 -25.5 -104t-70.5 -92z" />
    <glyph glyph-name="three.tf" horiz-adv-x="534" 
d="M249 370q96 7 161.5 -45t64.5 -143q-1 -85 -61.5 -139t-165.5 -54q-124 0 -211 82l36 48q36 -37 76.5 -57.5t98.5 -20.5q74 0 119 40.5t46 100.5q0 46 -24.5 80t-63.5 49q-32 14 -68.5 14t-71.5 -7l-20 32l208 238h-302v52h379v-41z" />
    <glyph glyph-name="four.tf" horiz-adv-x="534" 
d="M491 205v-52h-67v-153h-60v153h-326l-14 43l270 444h65l-266 -435h271v191h60v-191h67z" />
    <glyph glyph-name="five.tf" horiz-adv-x="534" 
d="M265 391q90 2 150 -53t60 -146q-1 -84 -60.5 -143t-162.5 -59q-122 -1 -206 82l34 49q69 -79 169 -79q76 0 119 44t44 106q0 66 -43 106.5t-110 40.5q-14 1 -26.5 -1t-22 -4.5t-19 -6t-15.5 -7t-12.5 -8t-9.5 -7t-6.5 -6l-3.5 -3.5l-51 22l54 322h293v-52h-242l-40 -225
q43 28 107 28z" />
    <glyph glyph-name="six.tf" horiz-adv-x="534" 
d="M272 -11q-100 0 -160.5 59.5t-61.5 147.5q0 27 2.5 47t14 49.5t21.5 49.5t41 68t54.5 82.5t78.5 114.5q15 22 23 33h66l-187 -274q41 40 117 40q87 0 147 -58t60 -151q0 -87 -61 -147.5t-155 -60.5zM269 41q66 0 111 45.5t45 111.5q0 65 -45 110.5t-111 45.5t-111 -46
t-45 -110q0 -67 44.5 -112t111.5 -45z" />
    <glyph glyph-name="seven.tf" horiz-adv-x="534" 
d="M59 640h417v-42l-275 -598h-66l277 588h-353v52z" />
    <glyph glyph-name="eight.tf" horiz-adv-x="534" 
d="M356 345q62 -20 97 -65t35 -104q0 -35 -13.5 -67.5t-39.5 -59.5t-69.5 -43.5t-98.5 -16.5t-98.5 16.5t-69.5 43.5t-39.5 59.5t-13.5 67.5q0 58 35 103.5t97 65.5q-105 41 -105 145q0 67 54 115t140 48t140 -48t54 -115q0 -104 -105 -145zM134 487q0 -51 38 -85t95 -34
t95 34t38 85q0 50 -38 82t-95 32t-95 -32t-38 -82zM267 41q68 0 113.5 39.5t45.5 98.5q0 58 -46 97t-113 39q-66 0 -112.5 -39t-46.5 -97q0 -59 45.5 -98.5t113.5 -39.5z" />
    <glyph glyph-name="nine.tf" horiz-adv-x="534" 
d="M262 651q100 0 160.5 -59.5t61.5 -147.5q0 -27 -2.5 -47t-14 -49.5t-21.5 -49.5t-41 -68t-54.5 -82.5t-78.5 -114.5q-15 -22 -23 -33h-66l187 274q-41 -40 -117 -40q-87 0 -147 58t-60 151q0 88 61 148t155 60zM265 599q-66 0 -111 -45.5t-45 -111.5q0 -65 45 -110.5
t111 -45.5t111 46t45 110q0 67 -44.5 112t-111.5 45z" />
    <glyph glyph-name="zero.tosf" horiz-adv-x="534" 
d="M267 -12q-110 0 -183 73.5t-73 186.5q0 112 73 184.5t183 72.5q109 0 182 -72.5t73 -184.5q0 -113 -73 -186.5t-182 -73.5zM267 40q87 0 139.5 60.5t52.5 147.5q0 86 -52.5 145.5t-139.5 59.5t-140 -59.5t-53 -145.5q0 -87 53 -147.5t140 -60.5z" />
    <glyph glyph-name="one.tosf" horiz-adv-x="534" 
d="M278 490h53v-490h-60v424l-162 -104l-28 45l197 125v-1v1z" />
    <glyph glyph-name="two.tosf" horiz-adv-x="534" 
d="M164 52h312v-52h-418v45l175 115q27 17 35.5 22.5t31.5 21.5t31.5 24.5t24 23.5t21.5 27t11.5 28t5.5 32q-1 55 -37 84.5t-94 29.5q-85 1 -142 -81l-46 32q26 41 72 71.5t116 29.5q90 -1 141.5 -45.5t51.5 -119.5q0 -35 -12.5 -65.5t-40 -57.5t-53.5 -46t-70 -46z" />
    <glyph glyph-name="three.tosf" horiz-adv-x="534" 
d="M260 219q96 8 161.5 -44t64.5 -144q0 -84 -61 -138t-166 -54q-124 0 -211 82l36 48q37 -37 77 -57.5t98 -20.5q75 0 119.5 40.5t45.5 99.5q0 47 -24.5 81t-63.5 49q-32 13 -68.5 13.5t-71.5 -6.5l-20 32l208 238h-302v52h379v-41z" />
    <glyph glyph-name="four.tosf" horiz-adv-x="534" 
d="M501 52v-52h-67v-152h-60v152h-326l-14 43l270 445h65l-266 -436h271v192h60v-192h67z" />
    <glyph glyph-name="five.tosf" horiz-adv-x="534" 
d="M272 241q90 1 150 -54t59 -146q0 -84 -59.5 -143t-162.5 -59q-122 0 -207 83l35 49q69 -80 169 -80q76 0 119 44.5t44 106.5q0 66 -43 106t-110 41q-14 0 -26.5 -1.5t-22 -4t-19 -6.5t-15.5 -7.5t-12.5 -7.5t-9.5 -7t-6.5 -6l-3.5 -3l-51 22l54 322h293v-52h-243
l-39 -225q43 27 107 28z" />
    <glyph glyph-name="six.tosf" horiz-adv-x="534" 
d="M272 -11q-100 0 -160.5 59.5t-61.5 147.5q0 27 2.5 47t14 49.5t21.5 49.5t41 68t54.5 82.5t78.5 114.5q15 22 23 33h66l-187 -274q41 40 117 40q87 0 147 -58t60 -151q0 -87 -61 -147.5t-155 -60.5zM269 41q66 0 111 45.5t45 111.5q0 65 -45 110.5t-111 45.5t-111 -46
t-45 -110q0 -67 44.5 -112t111.5 -45z" />
    <glyph glyph-name="seven.tosf" horiz-adv-x="534" 
d="M59 490h416v-42l-274 -598h-66l276 588h-352v52z" />
    <glyph glyph-name="eight.tosf" horiz-adv-x="534" 
d="M356 345q62 -20 97 -65t35 -104q0 -35 -13.5 -67.5t-39.5 -59.5t-69.5 -43.5t-98.5 -16.5t-98.5 16.5t-69.5 43.5t-39.5 59.5t-13.5 67.5q0 58 35 103.5t97 65.5q-105 41 -105 145q0 67 54 115t140 48t140 -48t54 -115q0 -104 -105 -145zM134 487q0 -51 38 -85t95 -34
t95 34t38 85q0 50 -38 82t-95 32t-95 -32t-38 -82zM267 41q68 0 113.5 39.5t45.5 98.5q0 58 -46 97t-113 39q-66 0 -112.5 -39t-46.5 -97q0 -59 45.5 -98.5t113.5 -39.5z" />
    <glyph glyph-name="nine.tosf" horiz-adv-x="534" 
d="M262 503q100 0 160.5 -59t61.5 -148q0 -27 -2.5 -47t-14 -49.5t-21.5 -49t-41 -68t-54.5 -82.5t-78.5 -115q-15 -21 -23 -33h-66l187 274q-41 -40 -117 -40q-87 0 -147 58.5t-60 151.5q0 87 61 147t155 60zM265 451q-66 0 -111 -45t-45 -111t45 -111.5t111 -45.5
t111 46.5t45 110.5q0 66 -44.5 111t-111.5 45z" />
    <glyph glyph-name="zero.dnom" horiz-adv-x="389" 
d="M194.5 -10q-66.5 0 -105.5 55t-39 145t39 145t105.5 55t105.5 -55t39 -145t-39 -145t-105.5 -55zM195 35q43 0 66.5 44t23.5 111t-23.5 111t-67 44t-67 -44t-23.5 -111t23.5 -111t67.5 -44z" />
    <glyph glyph-name="one.dnom" horiz-adv-x="236" 
d="M138 380h48l-1 -380h-51v323l-92 -57l-22 39z" />
    <glyph glyph-name="two.dnom" horiz-adv-x="363" 
d="M138 45h175v-45h-261v30l154 157q22 23 34 43t12 45q0 30 -19.5 50t-52.5 20q-21 0 -40 -10.5t-27.5 -19.5t-21.5 -26l-38 29q18 28 51 50t76 22q56 0 91 -31.5t35 -82.5q0 -58 -52 -112z" />
    <glyph glyph-name="three.dnom" horiz-adv-x="364" 
d="M175 219q57 4 98.5 -26.5t41.5 -85.5q-1 -51 -39 -84t-104 -33q-73 0 -132 53l30 38q44 -46 102 -46q40 0 63.5 19.5t24.5 50.5q2 50 -45 71q-37 16 -88 -3l-20 33l117 129h-163v45h238v-24z" />
    <glyph glyph-name="four.dnom" horiz-adv-x="343" 
d="M323 128v-45h-44v-83h-52v83h-183l-14 40l156 257h56l-153 -252h138v107h52v-107h44z" />
    <glyph glyph-name="five.dnom" horiz-adv-x="365" 
d="M191 235q55 0 90 -33t34 -89q0 -50 -38 -86.5t-101 -36.5q-82 0 -136 57l30 39q15 -16 23 -23t31.5 -17.5t50.5 -10.5q40 0 63 23.5t23 55.5q0 34 -21 54.5t-54 21.5q-39 0 -69 -24l-50 21l36 193h189v-45h-150l-23 -123q28 23 72 23z" />
    <glyph glyph-name="six.dnom" horiz-adv-x="369" 
d="M186 -10q-61 0 -98.5 35.5t-37.5 88.5q-1 45 18.5 82.5t95.5 147.5q16 23 24 36h61l-111 -157q15 17 60 17q51 0 86.5 -34t35.5 -89q0 -54 -38 -90.5t-96 -36.5zM185 35q34 0 57.5 23t23.5 57t-23.5 57t-57.5 23q-35 0 -58 -23.5t-23 -56.5q0 -34 23 -57t58 -23z" />
    <glyph glyph-name="seven.dnom" horiz-adv-x="334" 
d="M40 380h255v-30l-164 -350h-57l157 335h-191v45z" />
    <glyph glyph-name="eight.dnom" horiz-adv-x="371" 
d="M240 204q38 -12 59.5 -39t21.5 -63q0 -45 -35 -78.5t-100.5 -33.5t-100.5 33.5t-35 78.5q0 36 21.5 63t60.5 39q-66 25 -66 88q0 40 33.5 69t86.5 29t86 -29t33 -69q0 -63 -65 -88zM185.5 345q-28.5 0 -47.5 -16.5t-19 -42.5t19 -43t47.5 -17t47.5 17t19 43t-19 42.5
t-47.5 16.5zM186 35q34 0 57.5 20.5t23.5 51t-23.5 51.5t-58 21t-58 -21t-23.5 -51.5t23.5 -51t58.5 -20.5z" />
    <glyph glyph-name="nine.dnom" horiz-adv-x="369" 
d="M183 390q62 0 99.5 -35.5t37.5 -88.5q0 -45 -19.5 -82.5t-94.5 -146.5q-16 -24 -25 -37h-60l110 158q-15 -18 -60 -18q-51 0 -86 34.5t-35 89.5q0 53 37.5 89.5t95.5 36.5zM185 345q-34 0 -57.5 -23t-23.5 -57q0 -33 23.5 -56.5t57.5 -23.5t57.5 24t23.5 56
q0 34 -23.5 57t-57.5 23z" />
    <glyph glyph-name="zero.numr" horiz-adv-x="389" 
d="M194.5 250q-66.5 0 -105.5 55t-39 145t39 145t105.5 55t105.5 -55t39 -145t-39 -145t-105.5 -55zM195 295q43 0 66.5 44t23.5 111t-23.5 111t-67 44t-67 -44t-23.5 -111t23.5 -111t67.5 -44z" />
    <glyph glyph-name="one.numr" horiz-adv-x="236" 
d="M138 640h48l-1 -380h-51v323l-92 -57l-22 39z" />
    <glyph glyph-name="two.numr" horiz-adv-x="363" 
d="M138 305h175v-45h-261v30l154 157q22 23 34 43t12 45q0 30 -19.5 50t-52.5 20q-21 0 -40 -10.5t-27.5 -19.5t-21.5 -26l-38 29q18 28 51 50t76 22q56 0 91 -31.5t35 -82.5q0 -58 -52 -112z" />
    <glyph glyph-name="three.numr" horiz-adv-x="364" 
d="M175 479q57 4 98.5 -26.5t41.5 -85.5q-1 -51 -39 -84t-104 -33q-73 0 -132 53l30 38q44 -46 102 -46q40 0 63.5 19.5t24.5 50.5q2 50 -45 71q-37 16 -88 -3l-20 33l117 129h-163v45h238v-24z" />
    <glyph glyph-name="four.numr" horiz-adv-x="343" 
d="M323 388v-45h-44v-83h-52v83h-183l-14 40l156 257h56l-153 -252h138v107h52v-107h44z" />
    <glyph glyph-name="five.numr" horiz-adv-x="365" 
d="M191 495q55 0 90 -33t34 -89q0 -50 -38 -86.5t-101 -36.5q-82 0 -136 57l30 39q15 -16 23 -23t31.5 -17.5t50.5 -10.5q40 0 63 23.5t23 55.5q0 34 -21 54.5t-54 21.5q-39 0 -69 -24l-50 21l36 193h189v-45h-150l-23 -123q28 23 72 23z" />
    <glyph glyph-name="six.numr" horiz-adv-x="369" 
d="M186 250q-61 0 -98.5 35.5t-37.5 88.5q-1 45 18.5 82.5t95.5 147.5q16 23 24 36h61l-111 -157q15 17 60 17q51 0 86.5 -34t35.5 -89q0 -54 -38 -90.5t-96 -36.5zM185 295q34 0 57.5 23t23.5 57t-23.5 57t-57.5 23q-35 0 -58 -23.5t-23 -56.5q0 -34 23 -57t58 -23z" />
    <glyph glyph-name="seven.numr" horiz-adv-x="334" 
d="M40 640h255v-30l-164 -350h-57l157 335h-191v45z" />
    <glyph glyph-name="eight.numr" horiz-adv-x="371" 
d="M240 464q38 -12 59.5 -39t21.5 -63q0 -45 -35 -78.5t-100.5 -33.5t-100.5 33.5t-35 78.5q0 36 21.5 63t60.5 39q-66 25 -66 88q0 40 33.5 69t86.5 29t86 -29t33 -69q0 -63 -65 -88zM185.5 605q-28.5 0 -47.5 -16.5t-19 -42.5t19 -43t47.5 -17t47.5 17t19 43t-19 42.5
t-47.5 16.5zM186 295q34 0 57.5 20.5t23.5 51t-23.5 51.5t-58 21t-58 -21t-23.5 -51.5t23.5 -51t58.5 -20.5z" />
    <glyph glyph-name="nine.numr" horiz-adv-x="369" 
d="M183 650q62 0 99.5 -35.5t37.5 -88.5q0 -45 -19.5 -82.5t-94.5 -146.5q-16 -24 -25 -37h-60l110 158q-15 -18 -60 -18q-51 0 -86 34.5t-35 89.5q0 53 37.5 89.5t95.5 36.5zM185 605q-34 0 -57.5 -23t-23.5 -57q0 -33 23.5 -56.5t57.5 -23.5t57.5 24t23.5 56
q0 34 -23.5 57t-57.5 23z" />
    <glyph glyph-name="registered.ss01" horiz-adv-x="781" 
d="M391 654q93 0 169.5 -45t118.5 -121t42 -166.5t-42.5 -166.5t-118.5 -120.5t-169 -44.5q-95 0 -171 44.5t-118 120.5t-42 167t42 166.5t118 120.5t171 45zM391 26q126 0 208.5 86.5t82.5 209.5t-82 209t-209 86q-130 0 -211 -86t-81 -209q0 -124 81 -210t211 -86z
M510 411q0 -46 -32 -72.5t-78 -30.5l136 -182h-60l-133 181h-25v-181h-50v392h113q57 0 93 -29.5t36 -77.5zM318 474v-123h56q40 0 61.5 15t21.5 45t-22.5 46.5t-64.5 16.5h-52z" />
    <glyph glyph-name="uni03000304" horiz-adv-x="0" 
d="M-296 726v41h242v-41h-242zM-191 557l-85 90l61 11l127 -148h-26q-17 0 -33 8.5t-44 38.5z" />
    <glyph glyph-name="uni03010304" horiz-adv-x="0" 
d="M-327 726v41h241v-41h-241zM-173 557q-28 -30 -44 -38.5t-33 -8.5h-26l126 148l62 -11z" />
    <glyph glyph-name="uni03040300" horiz-adv-x="0" 
d="M-184 609h-32q-22 0 -40 19l-85 86l60 13zM-331 525v41h241v-41h-241z" />
    <glyph glyph-name="uni03040301" horiz-adv-x="0" 
d="M-258 609l97 117l61 -12l-85 -86q-18 -19 -40 -19h-33zM-331 525v41h241v-41h-241z" />
    <glyph glyph-name="uni0302.below" horiz-adv-x="0" 
d="M-194 -53l104 -109h-40q-21 0 -38 17l-53 52l-53 -52q-16 -17 -38 -17h-40l104 109h54z" />
    <glyph glyph-name="uni0338.lowercase" horiz-adv-x="0" 
d="M-180 474l25 -22l-421 -466l-25 22z" />
    <glyph glyph-name="uni03060301" horiz-adv-x="0" 
d="M-258 619l97 117l60 -12l-84 -87q-19 -18 -40 -18h-33zM-219 517q-58 0 -92.5 29.5t-37.5 76.5h44q3 -27 25 -46t61 -19t61 19t25 46h43q-2 -47 -36.5 -76.5t-92.5 -29.5z" />
    <glyph glyph-name="uni03060300" horiz-adv-x="0" 
d="M-184 619h-33q-21 0 -40 18l-85 87l61 12zM-219 517q-58 0 -92.5 29.5t-37.5 76.5h44q3 -27 25 -46t61 -19t61 19t25 46h43q-2 -47 -36.5 -76.5t-92.5 -29.5z" />
    <glyph glyph-name="uni03060303" horiz-adv-x="0" 
d="M-325 657q-26 0 -56.5 20.5t-48.5 20.5q-31 0 -50 -36l-37 24q10 16 17 25t25 20t39 11q26 0 58.5 -20.5t50.5 -20.5q29 0 45 38l40 -20q-29 -62 -83 -62zM-381 517q-58 0 -92.5 29.5t-36.5 76.5h43q3 -27 25 -46t61 -19t61 19t25 46h44q-3 -47 -37.5 -76.5t-92.5 -29.5z
" />
    <glyph glyph-name="uni03020301" horiz-adv-x="0" 
d="M-26 694l60 -12l-85 -87q-18 -18 -40 -18h-32zM-246 628h54l104 -109h-40q-21 0 -38 16l-53 53l-53 -53q-17 -16 -38 -16h-40z" />
    <glyph glyph-name="uni03020300" horiz-adv-x="0" 
d="M-417 694l97 -117h-32q-22 0 -40 18l-85 87zM-192 628l104 -109h-40q-21 0 -38 16l-53 53l-53 -53q-17 -16 -38 -16h-40l104 109h54z" />
    <glyph glyph-name="uni03020303" horiz-adv-x="0" 
d="M-430 699q-31 0 -50 -36l-37 23q11 17 17.5 26t24.5 20t39 11q26 0 58.5 -20.5t50.5 -20.5q29 0 46 38l39 -20q-29 -62 -83 -62q-26 0 -56.5 20.5t-48.5 20.5zM-408 628h54l104 -109h-40q-21 0 -38 16l-53 53l-53 -53q-16 -16 -38 -16h-40z" />
    <glyph glyph-name="_o.part" horiz-adv-x="665" 
d="M332 -12q-101 0 -166.5 67.5t-65.5 166.5t65.5 166.5t166.5 67.5t167 -67.5t66 -166.5t-66 -166.5t-167 -67.5zM332.5 40q73.5 0 121.5 52.5t48 129.5t-48 129.5t-121.5 52.5t-121.5 -52.5t-48 -129.5t48 -129.5t121.5 -52.5z" />
    </font>
</defs>
</svg>
