<?xml version="1.0" standalone="no"?>
<!DOCTYPE svg PUBLIC "-//W3C//DTD SVG 1.1//EN" "http://www.w3.org/Graphics/SVG/1.1/DTD/svg11.dtd" >
<svg xmlns="http://www.w3.org/2000/svg" xmlns:xlink="http://www.w3.org/1999/xlink" version="1.1">
<metadata>
Created by FontForge 20201107 at Wed Feb 17 15:22:56 2016
 By 
Copyright (c) 2012 by Nick Cooke, G-Type. All rights reserved.
</metadata>
<defs>
<font id="RollerscriptW01-Smooth" horiz-adv-x="656" >
  <font-face 
    font-family="RollerscriptW01-Smooth"
    font-weight="400"
    font-stretch="normal"
    units-per-em="1000"
    panose-1="3 5 6 0 4 3 7 0 0 0"
    ascent="800"
    descent="-200"
    x-height="335"
    cap-height="622"
    bbox="-275 -437.105 990.533 949"
    underline-thickness="50"
    underline-position="-125"
    unicode-range="U+0020-2122"
  />
<missing-glyph horiz-adv-x="352" 
 />
    <glyph glyph-name=".notdef" horiz-adv-x="352" 
 />
    <glyph glyph-name=".null" horiz-adv-x="0" 
 />
    <glyph glyph-name="glyph2" horiz-adv-x="543" 
d="M-56 18q3 4 9 12.5t148.5 218t158.5 222.5q3 2 14 34.5t22 42t20 9.5q26 0 49.5 -14t36.5 -43.5t12 -48.5l18 -43q2 -4 -6 -8t-6 -6q10 -10 11 -18l3 -146l32 5q9 1 14 -5t5 -17q-22 -6 -51 -11q2 -119 4 -148l3 -20q0 -2 -4 -10.5t-12.5 -18.5t-17.5 -10
q-12 0 -25.5 4.5t-13.5 9.5q0 3 9 16t9 18q7 75 8 152q-124 -18 -191 -18q-29 0 -60 2t-36 4h-1l-97 -174q-5 -8 -15.5 -15t-21.5 -7q-12 0 -22 12.5t-6 18.5zM264 417q-45 -41 -132 -190q34 -8 103 -9.5t160 7.5q0 77 -5 117q0 25 -7 56t-21.5 56.5t-22.5 25.5
q-6 0 -12 -11t-12.5 -13.5t-13.5 -1.5q-5 0 -10.5 -19.5t-6.5 -20.5t-8.5 3t-11.5 0z" />
    <glyph glyph-name="space" unicode=" " horiz-adv-x="293" 
 />
    <glyph glyph-name="exclam" unicode="!" horiz-adv-x="581" 
d="M472 617q-68 -138 -102.5 -225.5t-44.5 -147.5q-1 -7 -8 -9.5t-18.5 3t-14.5 13.5q7 42 25.5 103.5t58 170.5t47.5 132q5 6 11.5 8.5t11.5 0.5q29 2 41 -12.5t-7 -36.5zM309 44q5 -32 -4.5 -49.5t-25.5 -19.5q-7 -1 -18.5 2.5t-23 12.5t-12.5 17q-3 18 -2.5 27.5t7 15
t14.5 7.5q38 7 65 -13z" />
    <glyph glyph-name="quotedbl" unicode="&#x22;" horiz-adv-x="379" 
d="M219 607q-2 -4 -4 -7t-34 -58t-48.5 -98.5t-16.5 -79.5q0 -7 -6.5 -12.5t-19 -4.5t-18.5 8q-3 62 41.5 160.5t51.5 116.5q5 14 21 14q13 -1 26 -14.5t7 -24.5zM323 556q-31 -56 -48 -95.5t-25 -77.5q-1 -7 -8 -12.5t-18.5 -4.5t-17.5 8q3 49 20.5 101.5t42.5 105.5
q6 14 21 14q13 -1 26 -14.5t7 -24.5z" />
    <glyph glyph-name="numbersign" unicode="#" 
d="M513 570q22 11 33 1.5t8.5 -26t-8.5 -27.5q-4 -36 -24 -108q85 18 130 17q34 -1 21 -23q-1 -1 -6 -3t-17.5 -2.5t-16.5 -1.5q-33 -4 -121 -26l-50 -182q169 49 238 60q10 2 17.5 0t5.5 -7t-11 -6q-19 -5 -33 -11q-81 -33 -228 -80q-26 -102 -31 -157q-3 -28 -2 -38
q-10 -2 -17.5 4.5t-9.5 23t0 35.5q5 46 20 119q-123 -37 -187 -52q-11 -38 -18 -72q-4 -22 -2 -38q-14 -3 -20 3t-5 29q2 28 12 70q-94 -21 -144 -21q-11 -6 -25 -1.5t-15 16.5t6 25q77 -1 189 25q19 70 59 192q-127 -28 -182 -24q-15 -7 -33 -1.5t-22 21t10 31.5
q2 0 21.5 -5.5t36.5 -4.5q70 1 183 27q46 140 49 170q2 17 -0.5 37t-2.5 22q20 11 31.5 9t15 -14t0 -31.5t-12.5 -36.5q-4 -40 -38 -147l160 39q20 72 36 120q2 24 0 50zM239 125q38 9 182 52q15 71 46 182l-164 -41z" />
    <glyph glyph-name="dollar" unicode="$" 
d="M549 766q-6 -13 -24.5 -33.5t-25.5 -32.5q-16 -24 -61 -156q34 -12 65 -36.5t45 -60t5 -58.5q-7 -6 -15 -11t-18 -2q-9 2 -13.5 6t-5.5 9t1.5 19t1.5 20q-3 31 -25 50.5t-53 27.5q-49 -146 -97 -320q18 -14 79 -56t63 -64q1 -14 -9 -25.5t-31 -18.5t-33 -7
q-17 -8 -47 -13t-59 -5h-10l-8 -39q-3 -19 0 -36.5t14 -37t9.5 -25.5t-9.5 -8.5t-12 -3.5q-22 2 -32 24.5t-6 59.5q4 36 10 68q-34 4 -73 17.5t-67 37t-35 47.5q-6 7 0 26t23 39q6 7 15 -2.5t8 -14.5q-4 -38 12.5 -63t49.5 -39t74 -15q17 78 34 137q-147 120 -138 265
q2 26 14 47.5t33 37t56.5 27t65.5 10.5q49 3 87 -6l62 178q5 23 16.5 46.5t29.5 24t34 -34.5zM357 517q-62 1 -101.5 -29t-46.5 -83q-14 -102 91 -194q35 121 94 303zM408 71q0 5 -8.5 14.5t-39 31.5t-42.5 31q-17 -63 -29 -114q46 2 82.5 11t36.5 26z" />
    <glyph glyph-name="percent" unicode="%" 
d="M213 51q2 1 4.5 -0.5t5 -8t0.5 -13.5q-1 -5 -13 -26.5t-31 -47t-32 -29.5q-4 -1 -7.5 4t-13.5 2q-14 -5 -26 4t-10 23q5 28 22.5 69.5t53 92.5t93.5 116t195 191q6 6 8 10.5t-7 6.5t-10 2q-6 1 -26 17q-10 -6 -54.5 -31t-84 -43t-69.5 -21q-10 -1 -25 6.5t-23 21.5t-9 28
q-1 17 14 46.5t42 57.5t64 46.5t77 16.5q26 -1 53.5 -21t32.5 -49v-1q5 0 13.5 -2t12.5 -5q5 -4 6 -10.5t-3 -12.5q10 -2 32 4t31 4q15 -3 26.5 -21.5t2.5 -28.5q-11 -11 -41 -36t-41 -31q-7 -4 -10.5 0.5t-8.5 1.5q-53 -37 -118.5 -105t-126 -149.5t-76.5 -133.5
q-3 -11 -1.5 -14.5t16.5 6.5q12 8 32.5 29t29.5 34zM498 173q-5 9 -18 9q-16 0 -38 -9q53 -45 53 -96q0 -37 -18 -67.5t-45 -43.5t-55 -13q-25 0 -43.5 27.5t-18.5 71.5q0 26 12.5 60t44.5 65l-31 9q-13 5 -12 17t5 13q12 3 17.5 3t9.5 -1q14 -3 40 -18q37 22 70 21
q11 0 23 -5.5t35 -18.5q8 1 12.5 -9t3.5 -20q-3 -19 -12.5 -28.5t-21.5 -9.5q-10 0 -18.5 7.5t-8.5 12.5q0 3 6 10t8 13zM249 406q20 5 69 30.5t72 46.5q-7 8 -8.5 21t10.5 28q0 7 -13 14t-44 9q-19 1 -57 -26.5t-57 -57t-19 -52.5q0 -7 5.5 -12t18 -4.5t23.5 3.5zM460 86
q0 45 -42 71q-28 -21 -47.5 -55t-19.5 -56q0 -23 8.5 -41.5t22.5 -18.5q15 0 36 16t31.5 39.5t10.5 44.5z" />
    <glyph glyph-name="ampersand" unicode="&#x26;" horiz-adv-x="458" 
d="M385 479q-10 17 -39 39.5t-56 32.5t-45 10q-26 0 -49 -12t-32.5 -30.5t-9.5 -34.5q-4 -25 5 -49.5t31.5 -42t41.5 -17.5q13 0 36 3t29 5q15 -18 15 -36q0 -16 -36 -20q-15 -2 -49 2.5t-39 3.5q-78 -12 -118.5 -58.5t-46.5 -129.5q7 -73 62 -110t161 -38q48 -1 98 22.5
t70 54.5q12 48 -5.5 84t-54.5 35q-10 -4 -74.5 -31t-83.5 -30q-9 -2 -27.5 6t-22.5 15q-8 23 38 35q11 -1 27.5 1.5t40 9t131.5 46t160 39.5q18 0 29.5 -9t6.5 -25.5t-20 -18.5q-30 24 -140 -13q22 -17 35 -41t13 -44q0 -45 -23 -79t-56.5 -53t-76.5 -31t-101 -14
q-34 0 -68.5 8t-62.5 21t-51.5 33t-38.5 48t-18 61q-18 84 36 153t157 84q4 1 4.5 3.5t-3.5 4.5q-64 38 -56 114q19 58 51 85.5t95 27.5q28 0 63 -8t63 -27t35 -39q8 -24 -3.5 -36.5t-27.5 -9.5z" />
    <glyph glyph-name="quotesingle" unicode="'" horiz-adv-x="274" 
d="M219 607q-2 -4 -4 -7t-34 -58t-48.5 -98.5t-16.5 -79.5q0 -7 -6.5 -12.5t-19 -4.5t-18.5 8q-3 62 41.5 160.5t51.5 116.5q5 14 21 14q13 -1 26 -14.5t7 -24.5z" />
    <glyph glyph-name="parenleft" unicode="(" horiz-adv-x="454" 
d="M272 -49q2 1 11.5 9t14.5 -3q12 -29 9 -49.5t-20 -20.5q-10 0 -27.5 8.5t-40.5 32t-47.5 64.5t-43 101t-18.5 122q0 71 22.5 141t57.5 127.5t75 102t70.5 68.5t48 33.5t27.5 9.5q8 0 16.5 -9t7.5 -14q-1 -4 -12 -6.5t-21 -2.5q-88 -76 -130.5 -129t-68.5 -101t-41.5 -105
t-14.5 -116q1 -52 16 -100.5t36.5 -85t42 -57t30.5 -20.5z" />
    <glyph glyph-name="parenright" unicode=")" horiz-adv-x="406" 
d="M199 678q-6 8 4 16.5t24 9.5q22 1 49.5 -39.5t40.5 -90.5t13 -85q-3 -84 -24.5 -162.5t-51 -141t-68 -118.5t-85.5 -102t-97 -76q-4 -2 -8 -3t-6.5 1.5t1.5 8t12 11.5q58 45 108.5 112t87 145t56 158.5t19.5 149.5q0 40 -10 79.5t-26 68t-39 58.5z" />
    <glyph glyph-name="asterisk" unicode="*" 
d="M280 708q1 0 5 -4t36.5 -42t40.5 -47q48 46 87 78t46 32q10 0 16 -11.5t-1 -27.5q-1 -2 -4.5 -0.5t-5.5 0.5q-28 -20 -101 -92l103 4q9 0 17.5 -4.5t12.5 -14t0 -14.5q-1 -1 -5.5 -3t-25 -2h-25.5l-58 -4q67 -67 106 -76q2 -1 1.5 -7.5t-5.5 -16.5t-8 -10
q-60 18 -151 105h-4q-98 -101 -134 -146q-4 -5 -17 -4.5t-18 5t-2 9.5q32 51 108 132l-64 -4q-13 0 -31 10t-17 16t15.5 17t21.5 12q20 -6 102 -6q-29 32 -49.5 60.5t-21.5 39.5q-1 6 11.5 11t18.5 5z" />
    <glyph glyph-name="plus" unicode="+" 
d="M363 449q23 20 38 11t14.5 -42.5t-15.5 -60.5l-20 -64q70 1 164 -4q25 -2 49 -10q2 -3 -2.5 -7t-18 -7t-26.5 -4l-181 -5q-41 -105 -54 -171q-10 -55 -46 -53q-8 0 -12 3.5t-3 7.5q11 36 24.5 74t30 80.5t21.5 56.5q-135 -9 -204 -25q-3 -8 -10 -14.5t-30 -5.5
q-10 9 -11.5 22t12.5 23.5t29 7.5q62 26 227 30q25 71 27 98q1 15 0.5 26.5t-2 21t-1.5 11.5z" />
    <glyph glyph-name="comma" unicode="," horiz-adv-x="373" 
d="M125 30q-1 24 9.5 36t22.5 12q9 0 29.5 -16t40 -45.5t14.5 -48.5q2 -42 -18 -81.5t-51.5 -73.5t-57.5 -48q-12 -6 -27.5 -2.5t-23.5 14.5q34 18 65.5 47t50.5 62.5t19 71.5q0 9 -5.5 15t-23 14t-23 12t-10 8.5t-7.5 10.5t-4 12z" />
    <glyph glyph-name="hyphen" unicode="-" horiz-adv-x="756" 
d="M207 229q22 -2 71.5 0t163.5 15t120 13q10 0 17 -5.5t9 -13.5q3 -21 -15 -35q-53 5 -153 -0.5t-192 -17.5q-25 -3 -35 11t-2.5 24t16.5 9z" />
    <glyph glyph-name="period" unicode="." horiz-adv-x="373" 
d="M232 33q5 -32 -4.5 -49.5t-25.5 -19.5q-7 -1 -18.5 2.5t-23 12.5t-12.5 17q-3 18 -2.5 27.5t7 15t14.5 7.5q38 7 65 -13z" />
    <glyph glyph-name="slash" unicode="/" horiz-adv-x="468" 
d="M397 627q5 13 28 13q10 0 27 -17.5t13 -29.5q-6 -19 -34 -44.5t-50 -34.5q-2 -3 -7.5 -13.5t-126 -224.5t-143.5 -290q-3 -9 6.5 -25t9.5 -20q0 -9 -15 -36t-19 -27q-8 0 -25 -6.5t-22 -6.5q-10 0 -13 2.5t-2 11t6 27.5q17 58 64.5 153.5t163.5 301.5t139 266z" />
    <glyph glyph-name="zero" unicode="0" horiz-adv-x="573" 
d="M426 519l-9 -3q30 -21 56.5 -52t38.5 -65t12 -61q0 -72 -40.5 -135.5t-101 -108.5t-122.5 -69.5t-101 -24.5q-23 0 -46.5 16.5t-38 38.5t-14.5 45q0 38 20.5 93.5t70 127.5t105.5 129l-2 1q-5 4 -6 14.5t6.5 24t11.5 19.5q9 12 28.5 20.5t60.5 9.5q28 18 40 18
q2 0 8.5 -0.5t11.5 4.5q3 3 9.5 -0.5t8.5 -7.5q4 -10 1.5 -21t-8.5 -13zM473 335q0 52 -19 88t-43 50t-43 16q-28 -19 -70 -59.5t-87.5 -101t-72.5 -115.5q-12 -25 -22.5 -55t-10.5 -42q0 -30 19.5 -52.5t41.5 -22.5q46 0 100.5 26t101.5 69.5t76 96.5t29 102z" />
    <glyph glyph-name="one" unicode="1" horiz-adv-x="387" 
d="M256 501q-21 -6 -47 -19.5t-53.5 -33t-53 -41t-26.5 -22.5q-7 -5 -16 -3.5t-14 -1.5q-4 -2 -11 3.5t-9.5 18t5.5 17.5q1 0 1 0.5t62.5 42.5t113.5 66.5t69 19.5q3 -2 19.5 6t20.5 7q6 -2 14 -16.5t11 -30.5q1 -4 -8 -15.5t-11 -14.5q-210 -381 -210 -463q0 -14 4 -30
t4 -19q0 -6 -13.5 -12.5t-18.5 -6.5q-3 0 -7.5 7t-6.5 7q-7 1 -14 8t-7 13q0 33 22 90.5t94 197t102 209.5q4 10 0.5 15t-16.5 1z" />
    <glyph glyph-name="two" unicode="2" horiz-adv-x="499" 
d="M111 362q0 -8 -3.5 -22t-10.5 -15q-22 -3 -39.5 13t-14.5 33q4 27 56.5 74t118.5 81.5t99 34.5q15 0 35.5 -10.5t36 -38t15.5 -61.5q0 -30 -20 -83t-63.5 -125t-81.5 -123q-7 -9 -8.5 -14.5t12.5 -2.5q37 8 84.5 13.5t80.5 5.5q10 0 23 -7t22 -21.5t7 -22.5q-2 -9 2 -12
q9 -6 9 -12q0 -4 -9 -9.5t-13 -2.5q-34 22 -94.5 27.5t-143.5 -10.5q-23 -4 -36 -20q-42 -50 -53 -58q-9 -7 -25 -5.5t-31 12.5t-15 28q0 14 4.5 18t10.5 6q31 8 81 55.5t99 114.5t81 133t32 108q0 64 -45 64q-12 0 -41.5 -13.5t-71.5 -43t-66 -53t-24 -36.5z" />
    <glyph glyph-name="three" unicode="3" horiz-adv-x="493" 
d="M400 477q0 5 -11.5 11.5t-36 10.5t-45.5 3q-29 -1 -75 -9.5t-72 -23.5q-9 -16 -21.5 -28.5t-26.5 -12.5q-19 0 -31 11t-12 31q0 7 6.5 15t10.5 10l23 6q123 44 214 44q26 0 59.5 -9.5t51.5 -25.5q9 -8 12 -27t0 -34t-7 -22q-15 -26 -42.5 -52t-61.5 -48.5t-95.5 -58.5
t-72.5 -52q8 -8 21.5 -14t63 -23t71 -28.5t39 -25.5t29.5 -35q4 -8 5.5 -19t-7.5 -16q-13 -32 -74 -52.5t-129 -20.5q-58 0 -98.5 16.5t-43.5 46.5q-1 9 2 21t9 15q16 7 22 -8.5t1 -29.5q11 -9 32 -14.5t44 -5.5q54 0 110.5 19.5t65.5 41.5q-5 12 -17.5 23.5t-30.5 20
t-86 30.5t-100 49q-7 6 -10.5 17t-0.5 19q5 12 45 17q55 21 121.5 63.5t98 73t41 49.5t9.5 31z" />
    <glyph glyph-name="four" unicode="4" horiz-adv-x="544" 
d="M431 482q21 6 37.5 0.5t16.5 -18.5q0 -3 -6.5 -12.5t-8.5 -16.5q-55 -122 -87 -202q-2 -5 -2 -10.5t12 -5.5l48 2q43 0 63.5 -9t20.5 -19q0 -1 -0.5 -5.5t-8.5 -21.5q-3 -7 -19 -13t-27 -1.5t-14 15.5q-12 7 -62 7q-17 0 -26.5 -4.5t-23.5 -42.5q-24 -74 -24 -112
q0 -5 2 -11t7 -10t16 -10q5 -3 -5 -19.5t-16 -18.5q-8 -3 -15 12q-21 5 -28.5 21.5t-7.5 43.5q0 30 30 120q10 26 -10 23q-103 -15 -143 -13.5t-53 12.5q-10 -3 -22.5 4.5t-23.5 27.5t-11 29q0 2 1.5 7t12 14.5t13.5 12.5q32 56 120 144t110.5 112.5t38.5 46.5q9 1 22.5 -7
t18 -28.5t-10.5 -38.5q-8 -9 -38.5 -30t-61.5 -37q-99 -93 -152 -187q-5 -17 9.5 -27t49.5 -10q41 0 122 12q29 4 34 12t11 26q27 82 71 175q2 58 20 61z" />
    <glyph glyph-name="five" unicode="5" horiz-adv-x="601" 
d="M326 550q9 0 21 -6.5t22 -15.5q71 -2 157.5 -8.5t121.5 -14.5q4 -5 2.5 -10.5t-11.5 -9.5t-23 -3q-73 8 -269 7q-38 -8 -86.5 -29.5t-83.5 -50t-47.5 -57t-8.5 -52.5q16 -29 51.5 -50t109.5 -39t97 -29.5t30 -24.5t7 -25q0 -28 -27 -61.5t-84 -63.5t-90 -30
q-32 0 -65.5 19.5t-45.5 39.5t3 32q2 1 5.5 -0.5t18.5 -20.5t20.5 -22.5t8.5 -3.5q28 -1 81 17.5t84.5 46.5t40.5 58q-4 6 -16.5 11t-84 23.5t-110.5 39t-63.5 51.5t-24.5 77q0 21 20 51.5t67.5 68.5t97.5 61.5t74 23.5z" />
    <glyph glyph-name="six" unicode="6" horiz-adv-x="553" 
d="M446 476q-3 2 -1.5 10.5t-6.5 5.5q-27 -3 -65.5 -17.5t-82 -44.5t-88 -75t-75 -102t-30.5 -104q0 -26 11.5 -56.5t43.5 -51.5t80 -21q56 0 115.5 20t95 49t35.5 60q0 15 -19 25t-48 10q-64 0 -124.5 -25.5t-96.5 -60.5q-8 -6 -22.5 3.5t-16 26t15.5 27.5q26 17 69 34.5
t85.5 26t72.5 8.5q42 0 73.5 -11t43.5 -28t12 -32q0 -32 -18.5 -59.5t-48.5 -47.5t-65.5 -33.5t-76.5 -22.5t-74 -9q-87 0 -137 42.5t-50 125.5q0 66 45 140t113 136.5t137 97.5t112 29q31 3 45 -33q8 -19 5 -32.5t-21.5 -15.5t-42.5 5z" />
    <glyph glyph-name="seven" unicode="7" horiz-adv-x="534" 
d="M50 532q156 6 259 -6t141 -29.5t45.5 -32.5t4.5 -27q10 -18 -1 -35q-4 -16 -23 -47t-97.5 -125t-104 -134t-32 -60.5t-5.5 -32.5q1 -7 5 -14t4.5 -8.5t-5.5 -7.5q-14 -13 -30.5 -3t-16.5 38t19.5 67.5t50.5 83t101.5 130.5t82.5 112q13 28 5 43t-36 23q-27 8 -92.5 15.5
t-141.5 6.5q-48 -13 -83 -11.5t-49 9t-16.5 19t15.5 26.5z" />
    <glyph glyph-name="eight" unicode="8" horiz-adv-x="542" 
d="M416 308q-116 -68 -179 -112q11 -14 33.5 -39.5t76.5 -76t66 -70.5t12 -35q0 -14 -50 -26.5t-101 -12.5q-34 0 -77 9.5t-79 28.5t-54 46.5t-18 58.5q0 26 137 122q-73 107 -73 243q0 62 56.5 93t150.5 31q48 0 94 -19.5t64.5 -45.5t18.5 -50t-13.5 -51t-29.5 -42
q12 0 21.5 -5.5t12.5 -11.5q4 -9 1.5 -22.5t-9.5 -17.5q-22 -14 -61 5zM403 344l15 8q-15 8 -15 29q0 12 14 34.5t19 36.5t7 21q-9 20 -29 32.5t-41.5 16t-32.5 4.5q-59 3 -100.5 -10t-62.5 -35t-21 -52q0 -112 61 -205q64 44 186 120zM364 1q0 10 -9 23t-64.5 62t-85.5 86
q-100 -78 -100 -133q0 -19 22.5 -33t61.5 -23t80 -9t67.5 8t27.5 19z" />
    <glyph glyph-name="nine" unicode="9" horiz-adv-x="576" 
d="M480 540q10 -9 6 -33t-19 -43l7 3q11 0 24.5 -12t13.5 -21q0 -18 -27.5 -62t-44.5 -48q-16 -21 -39 -65t-48.5 -102.5t-32.5 -81.5q-7 -29 -1 -70.5t3 -51.5q-7 -7 -14 -2t-11 4q-7 -2 -20.5 1t-20 11.5t-6.5 17.5q0 28 49.5 149.5t110.5 243.5q-17 -8 -118.5 -67.5
t-159.5 -59.5q-24 0 -44 13t-28 29t-8 28q0 54 46 104t112.5 86.5t128 54.5t84.5 11q18 5 36 -9t21 -28zM135 289q33 0 82 23t96 52t81.5 52.5t37.5 25.5q-9 1 -18 9.5t-9 15.5q0 10 8.5 26.5t7.5 27.5q-56 -1 -113.5 -21t-103 -51.5t-72.5 -65t-28 -57.5q0 -18 9.5 -27.5
t21.5 -9.5z" />
    <glyph glyph-name="colon" unicode=":" horiz-adv-x="391" 
d="M275 287q-20 -25 -39.5 -30t-31.5 6q-11 9 -16 30.5t3 30.5q11 14 18.5 20.5t16 5.5t14.5 -6q19 -14 26 -28t9 -29zM232 34q5 -32 -4.5 -49.5t-25.5 -19.5q-7 -1 -18.5 2.5t-23 12.5t-12.5 17q-3 18 -2.5 27.5t7 15t14.5 7.5q38 7 65 -13z" />
    <glyph glyph-name="semicolon" unicode=";" horiz-adv-x="373" 
d="M125 30q-1 24 9.5 36t22.5 12q9 0 29.5 -16t40 -45.5t14.5 -48.5q2 -42 -18 -81.5t-51.5 -73.5t-57.5 -48q-12 -6 -27.5 -2.5t-23.5 14.5q34 18 65.5 47t50.5 62.5t19 71.5q0 9 -5.5 15t-23 14t-23 12t-10 8.5t-7.5 10.5t-4 12zM270 278q-20 -25 -39.5 -30t-31.5 6
q-11 9 -16 30.5t3 30.5q11 14 18.5 20.5t16 5.5t14.5 -6q19 -14 26 -28t9 -29z" />
    <glyph glyph-name="less" unicode="&#x3c;" horiz-adv-x="753" 
d="M204 291q22 -9 84.5 -36.5t182.5 -89t124 -63.5q19 -2 35 -11.5t22.5 -24.5t5.5 -27q-1 -11 -10.5 -19t-17.5 -8q-7 0 -23 17.5t-25 32.5q-18 9 -104.5 54t-161.5 77.5t-136 42.5q-6 1 -13 -4.5t-10 -5.5q-20 -1 -35.5 15.5t-20 32.5t-3.5 22q2 8 13.5 13.5t31.5 1.5
q73 32 224.5 92t196.5 79q38 25 44 28t10 3q19 1 28 -22.5t0 -38.5q-2 -4 -16 -8t-39.5 -4.5t-41.5 3.5q-150 -60 -200 -81.5t-88 -40t-57 -30.5z" />
    <glyph glyph-name="equal" unicode="=" horiz-adv-x="732" 
d="M584 157q-8 -1 -34.5 -4.5t-203 -28.5t-190.5 -25q-10 0 -21 5t-19 15t-9 17q-1 6 4 10.5t13.5 10.5t11.5 8q84 -3 215 4t211 25q40 -1 40 -17q0 -5 -5 -11t-13 -9zM566 315q-14 7 -47 12.5t-96 1t-139 -15.5t-81 -11q-10 0 -21 5t-19 15t-9 17q-1 8 8.5 14.5t12.5 8.5
q36 6 100 8.5t168.5 -0.5t113.5 -3q18 0 26 -8t8 -18t-7.5 -18.5t-17.5 -7.5z" />
    <glyph glyph-name="greater" unicode="&#x3e;" horiz-adv-x="752" 
d="M584 266q-36 35 -87 62.5t-103.5 50t-62.5 26.5q-38 5 -75 15.5t-59.5 26t-21.5 34.5q1 10 9 16.5t23 3.5q4 -2 16 -7t110 -47.5t171 -82.5t121 -79q20 3 34 -17t11 -34q-5 -18 -33 -24t-50 1q-121 -44 -195 -74.5t-162 -75.5q-17 -18 -51 -35.5t-46 -18.5
q-19 -1 -28 22.5t0 38.5t102 38q39 19 187.5 76t189.5 84z" />
    <glyph glyph-name="question" unicode="?" horiz-adv-x="710" 
d="M338 34q5 -31 -4 -48t-25 -19q-6 -1 -17 2.5t-22 12t-12 16.5q0 1 -2 10.5t-0.5 17.5t6.5 13t14 7q36 7 62 -12zM307 459q4 -1 -0.5 -5.5t-10 -7t-7.5 -2.5q-9 0 -28.5 15t-19.5 34t31 41t77.5 40.5t100.5 31t95 12.5q25 0 52 -5.5t44.5 -19.5t17.5 -32q0 -48 -39.5 -102
t-121 -122.5t-98.5 -84.5q3 -14 1 -27t-7 -17q-2 -2 -6.5 -2t-13.5 2.5t-10 2.5q-5 1 -22.5 20t-17.5 25q0 7 5.5 15.5t12.5 10.5q43 18 97.5 57t105 90t63.5 80q8 18 7.5 35t-13 27.5t-41.5 10.5q-79 0 -144 -24.5t-112 -65.5q-7 -6 -5.5 -18.5t7.5 -14.5z" />
    <glyph glyph-name="at" unicode="@" horiz-adv-x="1118" 
d="M910 -66q2 1 4.5 -1t2.5 -5q0 -6 -8 -10q-36 -19 -100 -38t-147 -34t-146 -12q-3 0 -9.5 -4t-12.5 -3q-92 7 -157 36t-106.5 73.5t-61 103.5t-14.5 122q0 3 3.5 11t3.5 14q-1 84 37.5 161.5t121 146.5t202.5 115.5t211 47.5q4 0 7 -2t6 -2t4.5 2t4.5 2q65 -9 116 -37
t76 -68q10 -3 20 -13t15.5 -25.5t6.5 -24.5q2 -35 -3.5 -82.5t-25 -99t-55.5 -103.5t-90 -94t-112 -59q-5 -2 -9.5 0.5t-5.5 2.5q-3 0 -6 -2t-8 -1q-31 3 -58 26.5t-41 72t-12 94.5q0 3 -0.5 7.5t-3.5 3.5t-12 -8t-37.5 -32t-44.5 -35.5t-29 -14.5q-1 -2 -3.5 -7.5
t-12.5 -16t-32.5 -19t-47.5 -9.5t-28 1q-18 12 -23.5 28.5t-2.5 40.5q3 23 27.5 59t79 85t111.5 83t87 41q17 4 39 4q21 0 33 -1.5t22 -9.5q36 5 59.5 -28.5t21.5 -78.5q0 -4 -6 -11t-6 -11q0 -7 -7 -15t-23 -12t-35 -3q-1 0 -1.5 0.5t4 4.5t8 7t4.5 7q2 10 4 34t-3 42
t-13 25q-9 7 -44 6.5t-85 -7.5q-40 -23 -78.5 -53t-124.5 -113q-3 -2 -7.5 -17t-5 -34t7.5 -20q14 -2 38 16q1 1 2.5 2t39 24.5t78 55.5t50.5 58q0 4 6.5 1.5t9.5 2.5q2 4 6 18.5t7 16.5q17 16 21.5 19t7.5 3q14 0 23.5 -8.5t12.5 -22.5q1 -3 -2.5 -12t-4.5 -12
q-7 -31 -17 -53q-10 -24 -5 -69t20.5 -76t40.5 -37q3 -1 9.5 -2t27.5 9t23 11q19 8 51 34t62.5 66.5t50.5 86t26.5 99.5t-4.5 109q-10 22 -34.5 47t-65 43.5t-81.5 24.5q-5 1 -18.5 -4.5t-19.5 -7.5q-10 -3 -42.5 -1t-40.5 0q-124 -39 -200.5 -82t-131.5 -104t-79 -130.5
t-26 -141.5q0 -138 91 -211t263 -73q54 0 172.5 22t186.5 44z" />
    <glyph glyph-name="A" unicode="A" horiz-adv-x="556" 
d="M447 -20q1 -7 -4.5 -15.5t-17.5 -14t-24.5 -1.5t-14.5 26q-7 88 -25 221q-94 -37 -156.5 -45t-108.5 2q-55 -93 -94 -170q-5 -9 -20 -5t-24.5 17t-2.5 23l96 150q-11 15 -14 28t2.5 22t14.5 13l31 -11q108 163 182 267q1 10 7 25t28 44q-10 25 -11.5 44.5t10 27.5t35.5 8
q16 -2 28 -16.5t18 -49t8 -91.5q0 -3 -6.5 -5t-6.5 -5q2 -115 15 -221l60 17q3 2 9.5 -1t10.5 -11t0 -14l-76 -29q19 -138 51 -230zM315 494q-131 -195 -186 -285q43 -8 92 -4t135 31z" />
    <glyph glyph-name="B" unicode="B" horiz-adv-x="558" 
d="M1 639q37 -9 144.5 -23.5t155.5 -24.5l11 27q9 8 20.5 7t21 -10.5t5.5 -21.5l-8 -15q124 -36 124 -111q0 -74 -213 -156q5 -3 46.5 -22.5t71.5 -38.5t51.5 -41.5t30 -45.5t8.5 -42q0 -31 -21.5 -61.5t-59 -55t-88.5 -39t-106 -14.5q-26 0 -60.5 7.5t-64 22.5t-49 40.5
t-19.5 58.5q0 19 8.5 45t28.5 54.5t42 49.5q3 2 5.5 -9.5t-0.5 -19.5q-18 -41 -25.5 -68t-7.5 -53q0 -21 13.5 -40.5t44.5 -31t80 -11.5q37 0 80.5 11t77 29.5t54.5 43.5t21 51q0 45 -59.5 84.5t-162.5 69.5q-66 -145 -54 -186q-5 -8 -13 -14t-18 -6t-19 8t-7.5 22t17.5 27
q25 71 59 153q-35 5 -47 18q-9 9 -7.5 22t8.5 19t12 6q31 -3 63 1l88 198q-53 10 -119 15.5t-117 2.5q-8 -1 -17 0.5t-18 5.5t-15.5 10.5t-11.5 13t-5 7.5q-4 5 5.5 18.5t14.5 12.5zM332 541l-93 -179q54 10 98.5 29.5t68.5 40.5t24 44q0 37 -98 65z" />
    <glyph glyph-name="C" unicode="C" horiz-adv-x="555" 
d="M397 566q-46 0 -91.5 -19.5t-83.5 -53t-71.5 -82.5t-50 -103.5t-16.5 -93.5q0 -87 37 -131.5t100 -44.5q106 0 219 84q5 2 14.5 -2t11.5 -17t-13 -25q-51 -39 -119.5 -61.5t-127.5 -22.5q-33 0 -66 12t-58.5 39.5t-40.5 65.5t-15 80t12 96t42.5 108t76.5 102.5
t104.5 79.5t101.5 31q34 0 69 -12.5t60 -43t25 -61.5q0 -37 -8.5 -62.5t-23 -34t-34.5 2.5q13 79 0 117.5t-54 51.5z" />
    <glyph glyph-name="D" unicode="D" horiz-adv-x="601" 
d="M16 685q45 -13 99.5 -38.5t101.5 -54.5l9 52q6 8 17.5 12.5t22.5 0.5q9 -3 16.5 -17.5t9.5 -42t-3 -54.5q43 -33 96 -86t90 -125.5t37 -144.5q0 -49 -16 -89t-46 -68t-72 -42.5t-93 -14.5q-50 0 -94.5 11.5t-67.5 25.5l-3 -33q9 -13 -3.5 -26t-24.5 -13q-9 0 -19 11
t-12 27.5t2 32.5q2 6 4.5 15.5t29.5 101t57.5 203t50.5 206.5q-85 52 -174 88q-18 7 -25.5 19.5t-1.5 26.5t12 16zM249 485q0 -1 -0.5 -2t-24.5 -67.5t-52 -167.5t-41 -182q21 -19 67 -33.5t113 -14.5q40 0 77.5 19.5t58 61t20.5 92.5q0 56 -25.5 110t-73 104t-110.5 95z
" />
    <glyph glyph-name="E" unicode="E" horiz-adv-x="597" 
d="M40 510q-6 5 -6 18t10.5 20.5t24.5 8.5q33 3 125 3l10 35q19 12 31.5 6.5t17 -19t4.5 -24.5q60 -3 155 -12.5t152 -16.5q12 -1 7 -12q-10 -17 -20 -16q-122 10 -305 12q-7 -12 -27 -42t-27 -44q-37 -69 -54 -134q65 -7 165.5 6t130.5 41q14 1 23 -3.5t10.5 -16
t-8.5 -22.5q-15 -16 -69 -29.5t-131.5 -19t-129.5 7.5q-9 -43 -7 -94q2 -41 18.5 -73t44 -44.5t58.5 -12.5q37 0 93 18.5t123 61t102 81.5q8 -1 14 -9.5t6 -14.5q0 -14 -21 -35q-44 -44 -108.5 -80t-122 -51t-100.5 -15q-68 0 -111 48.5t-43 137.5q0 35 9.5 77.5t25.5 88.5
t40 107t26 65q-83 0 -136 -3z" />
    <glyph glyph-name="F" unicode="F" horiz-adv-x="678" 
d="M143 317q43 -20 90 -31q66 187 88 278q-44 -9 -114 -27t-93 -22t-36 -4.5t-20 1.5q-12 11 -15 23.5t8 19.5t27 8q5 0 21 2.5t169.5 33.5t254.5 31q74 0 122.5 -18t48.5 -32q0 -11 -5.5 -20t-13.5 -11q-119 49 -294 25l-101 -297q45 -6 99 -4t131.5 13t101.5 11
q15 0 15 -18.5t-11 -32.5q-8 0 -32 -1.5t-129 -12.5t-190 -2q-42 -128 -51 -174q-4 -20 -5.5 -46t3.5 -39q-8 -12 -20 -18.5t-25 -5.5q-14 2 -22.5 16t-2.5 38q21 82 74 235q-34 5 -63 13q-8 2 -16.5 7.5t-12 18t2.5 26t16 16.5z" />
    <glyph glyph-name="G" unicode="G" horiz-adv-x="585" 
d="M505 470q16 19 16 43q0 21 -14.5 35.5t-42.5 14.5q-41 0 -92.5 -11t-103.5 -39t-99 -70.5t-77.5 -96t-30.5 -93.5q0 -28 13 -54t33 -32l30 -2q76 0 178 41.5t148 86.5q15 25 29 25q12 0 29 -9.5t17 -17.5q0 -6 -11 -18t-12 -13q-15 -26 -37.5 -81t-34.5 -102.5t-12 -77.5
q0 -40 19 -55q-3 -15 -19 -24.5t-27 -9.5q-15 0 -23.5 21t-8.5 50q0 11 6 36.5t32 101.5t34 105q-3 -1 -9.5 -4t-71.5 -32.5t-126 -46.5t-109 -17q-44 0 -74 20t-40.5 51.5t-10.5 60.5q0 48 39.5 110.5t106 119.5t135 87.5t110 36.5t61.5 6q28 0 51 -7.5t40.5 -21.5t28 -40
t3.5 -48q-4 -14 -16.5 -26.5t-28.5 -12.5q-14 0 -28 10z" />
    <glyph glyph-name="H" unicode="H" horiz-adv-x="598" 
d="M-58 317q4 -2 27.5 -11.5t45 -16t45.5 -10.5t50 -4h11q51 163 91 307q1 6 -0.5 29.5t3 34.5t13.5 15q13 6 36 -12t34 -38q4 -7 -6 -46.5t-27 -70.5q-4 -8 -21 -19t-20 -20q-49 -139 -62 -179q97 5 171 37t133 98q5 11 12 33t16 66.5t16.5 56t14.5 15.5q13 0 28 -5t19 -10
t6.5 -21.5t-0.5 -22.5q-9 -19 -46.5 -92.5t-66 -146t-44.5 -159.5q-7 -40 -4 -70t33 -59q1 -11 -10.5 -22t-19.5 -11q-21 1 -40 17t-19 36q0 36 10 97.5t66 218.5q-52 -43 -129 -71.5t-161 -32.5q-35 -114 -54 -233q-3 -16 -18 -24t-28 -9q-8 0 -17.5 5t-17.5 16t-7 15t12 7
t15 6q23 56 74 217q-45 1 -91 14t-73 32q-23 17 -18 29.5t18 13.5z" />
    <glyph glyph-name="I" unicode="I" horiz-adv-x="300" 
d="M17 -19q8 50 27 124t48 160t61.5 179t42.5 124q1 5 1.5 22.5t5.5 23.5t13 8q14 3 32 -6.5t25 -24.5q9 -20 -28 -89q-6 -11 -19 -21t-17 -17q-38 -84 -76.5 -213.5t-55.5 -226.5q-7 -39 -12.5 -49.5t-13.5 -11.5q-19 -1 -34 18z" />
    <glyph glyph-name="J" unicode="J" horiz-adv-x="571" 
d="M82 635q25 -9 60.5 -14.5t71.5 -8t85 -5.5t60 -4q3 27 3 51q54 22 46 -47l-1 -7q213 -13 277 -52q12 -8 14.5 -23t-5.5 -19t-19 1q-70 48 -274 56q-20 -95 -77.5 -276t-94.5 -273q-15 -37 -41.5 -46.5t-59.5 12.5q-69 46 -113.5 129t-44.5 136q0 16 6.5 40.5t19.5 46.5
t22 22q8 0 9.5 -5.5t-9 -29t-10.5 -35.5q0 -45 35.5 -130.5t84.5 -117.5q23 -15 40 -11t30 33q41 93 91 247.5t66 258.5l-141 -1q-10 0 -17 -5t-14 -5q-25 1 -53.5 8.5t-48 22t-19.5 23.5q0 7 21 28z" />
    <glyph glyph-name="K" unicode="K" horiz-adv-x="595" 
d="M574 524q15 1 26 -6t11 -15q0 -11 -27.5 -31.5t-60.5 -35.5t-78.5 -33t-83.5 -32t-74 -27t-37 -13q-14 -6 -20.5 -15.5t-3.5 -20.5q12 -42 67 -104.5t115.5 -99t108.5 -46.5q3 0 7.5 2t11 7.5t8.5 6.5q13 -1 21 -18.5t-3.5 -33.5t-48.5 -16q-39 0 -92 29t-104.5 75.5
t-91.5 100.5t-54 99l-122 -268q-6 -13 -7.5 -27.5t1.5 -28.5t2 -15q-31 -2 -43.5 16t2.5 51q88 189 127 284t64.5 174t27.5 126q4 9 13.5 15.5t18.5 6.5q7 0 13 -18t4 -44t-8 -50q-10 -36 -68 -168q81 26 206 83t172 90z" />
    <glyph glyph-name="L" unicode="L" horiz-adv-x="472" 
d="M186 622q1 3 9.5 9t13.5 6q17 0 25.5 -14.5t6.5 -33.5q0 -2 -1.5 -4t-5 -5.5l-4.5 -4.5q-22 -28 -60 -115t-62.5 -168t-24.5 -129q0 -64 21 -102t59 -38q21 0 54.5 9t89 29t65.5 20q23 0 45 -18q11 -9 13.5 -23.5t-10.5 -25.5t-28 -5q-6 14 -22.5 17t-35.5 -4
q-125 -44 -166 -44q-21 0 -48 6.5t-49.5 29.5t-30.5 59t-5 75q3 32 11 75t25.5 96.5t60.5 156t54 146.5z" />
    <glyph glyph-name="M" unicode="M" horiz-adv-x="793" 
d="M80 163q3 -14 4.5 -37.5t-2.5 -47t-10 -29.5q-1 -1 -6 -4t-22 -3q-6 -10 -17 -17t-17 -7q-9 0 -18 8t-12.5 24t-0.5 25q4 8 38.5 70t143 243t152.5 236q1 9 6.5 17t9.5 8q17 0 32.5 -18.5t17.5 -32.5q0 -4 1 -19t-6.5 -157.5t4.5 -190.5q13 -3 98.5 91t111.5 118.5
t39 34.5q1 7 6 15.5t9 10.5q20 11 33.5 3t21 -31.5t7.5 -56.5q0 -36 -23.5 -167.5t-23.5 -133.5q24 -57 23 -71q-1 -8 -17.5 -22.5t-22.5 -14.5q-9 0 -27.5 13.5t-17.5 21.5q1 5 3 21t23.5 146.5t22.5 195.5q0 13 -3 20t-11 -2q-3 -3 -113.5 -124.5t-112.5 -125.5
q-1 -11 -8 -17t-14 -6q-16 0 -30.5 6.5t-22.5 19.5t-9 24q-3 39 4.5 151.5t7 151t-5.5 60.5q-13 -11 -53.5 -69t-102.5 -162.5t-90 -168.5z" />
    <glyph glyph-name="N" unicode="N" horiz-adv-x="674" 
d="M154 376q-1 -4 -5.5 -18.5t-44 -135t-36.5 -139.5v-24t5 -36t5 -20q1 -7 -3 -10.5t-14 -3.5t-11 -1q-8 -16 -41 -16q-6 0 -9.5 13.5t-1 42.5t9.5 53q1 3 7 4t7 3q9 32 27.5 95t45 151.5t27.5 90.5q6 21 3 37q0 1 -0.5 2.5t-6.5 26t-0.5 42t20.5 22.5q1 30 11.5 45.5
t23.5 15.5q9 0 17 -20q11 0 24 -7.5t14 -13.5q2 -31 -17 -77q-3 -26 8 -68t38.5 -95.5t69 -107.5t82.5 -82q21 -14 31.5 -11.5t14.5 22.5q8 43 30 120.5t57.5 189.5t35.5 114q-5 12 -3.5 36.5t5.5 28.5q5 5 15 12t15 7q6 0 23.5 -11t17.5 -16q0 -8 -5.5 -44.5t-8.5 -40.5
q-5 -6 -28 -13q-1 -4 -22.5 -76.5t-44 -166.5t-31 -156.5t-5.5 -95.5q0 -5 5 -10.5t5 -9.5q-1 -6 -8.5 -9t-15.5 -1q-10 -4 -22 0t-22 20.5t-12 34.5q-75 55 -145.5 134t-113.5 160q-8 15 -14.5 18t-8.5 -5z" />
    <glyph glyph-name="O" unicode="O" horiz-adv-x="497" 
d="M394 454l-1 -14q56 -46 56 -102q0 -34 -26 -93.5t-70 -119.5t-101 -100.5t-115 -40.5q-29 0 -58 22.5t-48 65t-19 104.5q0 45 21.5 114.5t58.5 137.5t83 112.5t91 44.5q23 0 55.5 -20t52.5 -48.5t20 -62.5zM312 449q-10 3 -10.5 12.5t9.5 12.5t21 0q-4 15 -14.5 30
t-24.5 21.5t-26 6.5q-28 0 -55 -21.5t-40 -46.5q-17 -49 -40 -78.5t-34 -46.5q-8 -14 -19.5 -48.5t-17.5 -71t-6 -63.5q0 -54 27.5 -93t70.5 -39q25 0 61 21.5t81.5 73.5t73 111t27.5 96q0 30 -20 62q-4 -10 -18.5 -36t-38.5 -54q-3 1 -10 5.5t-9 15.5q-2 9 10 31.5t17 44
t6 42.5q-12 9 -21 12z" />
    <glyph glyph-name="P" unicode="P" horiz-adv-x="563" 
d="M3 665q48 4 113 5t135.5 -7t138.5 -29t115.5 -62t47.5 -99q0 -44 -25 -86t-65 -75.5t-87 -58t-100.5 -42.5t-91.5 -18l-26 2q-49 -116 -59 -169q-3 -11 2.5 -25t5.5 -15t-1 -1q-9 -12 -24 -21t-21 -8q-7 1 -16 10.5t-9.5 23.5t5.5 28q29 64 79 191q-25 17 -25 41
q0 28 10 52.5t23 22.5q3 -4 9.5 -19.5t11.5 -22.5q55 134 92 197q-3 35 6 51.5t34 16.5q15 0 28 -22.5t15 -47.5q-13 -9 -22 -20.5t-13 -20.5t-5.5 -15t-2.5 -10.5t-1 -5.5q-2 -9 -27 -3q-8 -8 -69 -146q18 -6 44 -6q27 0 80.5 17t102 51.5t70 74.5t21.5 79q0 33 -28.5 63
t-80.5 51.5t-123.5 29t-150.5 -3.5q-13 -8 -38.5 -14t-42.5 -6q-21 0 -39 15.5t-18 30.5q0 11 22 26z" />
    <glyph glyph-name="Q" unicode="Q" horiz-adv-x="595" 
d="M471 492q0 -20 -17 -46q37 -55 37 -133q0 -39 -24 -96.5t-62 -108.5l32 -45q43 -61 70 -83.5t52 -29.5t47 -7q17 0 38 4t49.5 15t34.5 13q4 -2 1.5 -11t-9.5 -15q-9 -8 -30.5 -18t-53.5 -18t-57 -8t-50.5 7.5t-50.5 26.5t-45 44.5t-38.5 55t-20.5 32.5
q-40 -43 -88.5 -68.5t-98.5 -25.5q-31 0 -61.5 13.5t-54.5 44.5t-38.5 76t-14.5 98q0 70 27.5 137t73.5 118.5t101.5 81t108.5 29.5q32 0 67 -14.5t55 -32.5t20 -36zM302 505q-21 0 -37.5 -4.5t-27.5 -9t-22 -10.5t-14 -7q-1 -2 -8.5 -14t-11.5 -13q-16 -2 -25 1q0 -1 -1 -2
t-17 -19.5t-34.5 -54t-28.5 -79t-10 -90.5q0 -83 35 -134t94 -51q32 0 76 22.5t82 60.5l-18 20q-21 3 -22.5 17t8 23t17.5 9q18 0 47 -34q31 39 49 85.5t18 93.5q0 40 -17.5 83.5t-56.5 75t-75 31.5zM336 533q-3 -1 -3 -5q24 -8 38 -14.5t36 -22.5q0 9 -7.5 18.5t-26 16
t-37.5 7.5z" />
    <glyph glyph-name="R" unicode="R" horiz-adv-x="616" 
d="M73 459q-13 -8 -32 2t-28.5 26.5t-9.5 28.5q0 17 27.5 35t82.5 33t131 15q54 0 104 -14.5t87.5 -41.5t59 -65.5t21.5 -83.5q0 -47 -18.5 -90.5t-57 -82.5t-95.5 -69q20 -34 60 -76.5t90 -77.5t70 -35q18 0 29 11q12 -2 22 -9t10.5 -18t-12 -21t-41.5 -10q-26 0 -60 17.5
t-77.5 52.5t-91.5 89.5t-66 82.5q-8 13 -6 25t14.5 17.5t35.5 -5.5q56 10 104 66.5t48 122.5q0 21 -7 41t-21.5 40t-48 43t-85.5 35q-21 -69 -92.5 -214.5t-92 -190.5t-34 -83t-18.5 -61q-2 -4 -10 -10t-23 -6q-13 0 -19.5 19.5t3.5 37.5q86 152 149 289.5t87 226.5l-29 1
q-29 0 -69.5 -9.5t-69 -32.5t-21.5 -51z" />
    <glyph glyph-name="S" unicode="S" horiz-adv-x="393" 
d="M220 583q-14 1 -24.5 -43.5t-10.5 -98.5q0 -30 4.5 -90t21 -196t16.5 -151q0 -7 -1 -15.5t-3 -13t-4 -5.5t-10 -1q-2 0 -1.5 -5t-2.5 -7q-18 -8 -56 -8q-87 0 -152.5 28.5t-83.5 62.5q-4 6 -5.5 30t4 43.5t13.5 29.5q5 6 8.5 3t1.5 -8q-6 -10 -8.5 -27.5t0 -37.5t6.5 -23
q32 -26 79.5 -44.5t102.5 -18.5q61 0 61 73q0 33 -13.5 154t-18 175t-5.5 83t-1 39q0 53 8 82t17 37t17 8q37 0 52 -21q25 -3 52.5 -22.5t50.5 -54.5t39.5 -75.5t16.5 -58.5q0 -17 -7.5 -28t-23.5 -11q-15 0 -24.5 13.5t-11.5 30.5q-2 27 -17 65t-42.5 72t-44.5 35z" />
    <glyph glyph-name="T" unicode="T" horiz-adv-x="550" 
d="M71 630q14 0 38 -2t63.5 -10t190.5 -50v37q12 12 29 12q11 0 20.5 -15t8.5 -32l-2 -16q140 -34 212 -22q7 1 5 -8q11 0 18 -7t7 -17q0 -14 -67 -14q-68 0 -184 25q-6 -26 -18 -68.5t-44.5 -145t-43 -138.5t-19 -66.5t-16 -64t-9.5 -57.5q0 -4 3.5 -8t3.5 -7q0 -7 -10 -17
t-19 -10q-8 0 -16.5 6.5t-11 17.5t-1.5 22q6 45 45 168t58 185.5t30.5 113.5t15.5 81q-10 2 -97 23t-124 25q-15 2 -27.5 -2.5t-24.5 -4.5q-21 0 -31 16t-3.5 33t20.5 17z" />
    <glyph glyph-name="U" unicode="U" horiz-adv-x="571" 
d="M138 419q-21 -55 -44 -146t-23 -134q0 -82 30.5 -97.5t82.5 35.5q42 40 98 109t95 131.5t55 106.5q1 4 10 48.5t15 47.5q12 6 28.5 6t31 -10.5t14.5 -23.5q0 -7 -3 -22.5t-11 -44.5t-10 -36q-1 -3 -4.5 -8t-10.5 -4q-22 -54 -38.5 -122.5t-16.5 -113.5q0 -34 6 -57
t14 -34t13.5 -16.5t11 -9t6.5 -4.5q3 -2 2 -10t-11 -17t-25 -9q-25 0 -42.5 36.5t-22 100.5t11.5 135q4 19 0 22t-13 -12q-24 -40 -88 -122.5t-106 -112.5q-22 -28 -53 -39.5t-59.5 -0.5t-45 47.5t-11.5 96.5q5 58 23 128t41 143.5t29 94.5q5 20 9.5 54.5t4.5 46.5
q0 8 8.5 16t21.5 8q15 0 31 -12t16 -26q0 -3 -2 -16.5t-14 -61.5l-15 -60q-3 -15 -15 -22.5t-25 -8.5z" />
    <glyph glyph-name="V" unicode="V" horiz-adv-x="537" 
d="M79 395q-5 -5 -16 -21t-16 -15q-8 1 -16 6.5t-8 14.5q0 1 0.5 5t10.5 57t10 91q0 4 11 9.5t20 5.5q13 0 31.5 -12.5t21.5 -28.5q3 -17 5 -49.5t3 -113.5t1.5 -117.5t2.5 -66t5 -54.5t9 -44q2 -5 7 -4.5t13.5 8.5t18.5 20q283 344 328 505q2 9 6.5 33.5t10 35t19.5 10.5
q9 0 24 -5t20 -12.5t1 -15.5q-10 -19 -20.5 -67t-10.5 -90t10 -69q-4 -8 -17.5 -16.5t-21.5 -9.5q-7 -1 -12 3.5t-8.5 14.5t-6 32t-3.5 27q-13 -24 -44 -71.5t-130 -186.5t-113 -168q-1 -10 -7.5 -23t-19.5 -22t-24 -6q-5 -18 -12 -21q-15 -6 -42 4.5t-28 31.5q1 2 4 4.5
t4 6.5t1 10q0 5 -1 20.5t-6.5 169t-14.5 184.5z" />
    <glyph glyph-name="W" unicode="W" horiz-adv-x="713" 
d="M118 505q-8 25 -6 35q2 8 15.5 14.5t24.5 7.5q10 1 20.5 -12t10.5 -29q0 -27 -11 -68.5t-26 -58.5q-59 -206 -65 -277q-2 -20 3.5 -24t19.5 15q65 88 231 379q17 30 27 31q3 0 9 -5t11 -4q7 1 11.5 -5t5.5 -15q1 -8 -0.5 -22.5t-3.5 -21.5q0 -6 -1.5 -22t-14 -153.5
t-8.5 -193.5q3 -33 8.5 -47t14.5 -13t26 18q36 38 79 122t81 197t43 142q3 54 6.5 79t11.5 36.5t14.5 13t9.5 1.5q14 0 24 -7.5t9 -19.5t-9 -23q-10 -50 -6 -103.5t17 -88.5t20 -48q4 -8 -3.5 -12.5t-19.5 -0.5q-14 4 -27.5 24t-20.5 55q-1 4 -2.5 4.5t-3.5 -3t-4 -8.5
q-74 -207 -132.5 -314.5t-107.5 -132.5q-3 -13 -8 -12q-9 1 -27 11.5t-23 22.5q-12 31 -15 105q-2 45 9.5 167t14.5 163q1 11 -1 15t-11 -10q-3 -5 -13 -21t-92 -153t-106 -170q-3 -6 -3.5 -10.5t-1.5 -7.5q-3 -7 -28 -29.5t-32 -22.5q-5 0 -18 14.5t-19 29.5q-1 3 9 10
q-1 41 10 96.5t45 185.5t29 174z" />
    <glyph glyph-name="X" unicode="X" horiz-adv-x="535" 
d="M436 435q-19 -5 -71.5 -47t-117.5 -104q33 -115 79 -171t105 -56q13 0 21 9t9 9q12 1 23 -5.5t11 -20.5t-17 -24t-49 -10q-76 0 -127.5 54.5t-89.5 181.5q-92 -88 -179 -181.5t-117 -138.5q-7 -11 -7.5 -17.5t3.5 -7.5q30 8 30 -16q0 -9 -9.5 -16.5t-18.5 -7.5
q-6 0 -19 4t-25.5 13.5t-12.5 19.5q0 13 12 37.5t36 53.5q93 109 294 301q-2 6 -19.5 74.5t-33 116t-35.5 83.5q1 14 7.5 25t13.5 11q18 0 36 -15t25 -38q9 -28 9 -77q3 -13 14 -65t19 -82q200 184 244 184q22 0 38.5 -14t16.5 -26q0 -9 -30 -23.5t-40 -15.5z" />
    <glyph glyph-name="Y" unicode="Y" horiz-adv-x="575" 
d="M181 660q0 6 7.5 13.5t13.5 7.5q3 0 15 -5t22.5 -16t6.5 -22q-39 -94 -66 -116q-4 -3 -11 -0.5t-8 2.5q-46 -92 -61 -178q-19 -107 44 -55q40 33 125 113.5t133 122t87 69.5q8 6 15 1t9 -5q18 -2 29 -17t8.5 -43.5t-11.5 -53.5q-2 -5 -10.5 -6t-12.5 -9
q-10 -25 -29.5 -64.5t-67.5 -123.5t-69 -122t-38 -72.5t-28.5 -65t-13.5 -52.5q-1 -13 6.5 -18.5t23 -5.5t15.5 -2q0 -14 -15.5 -25.5t-33.5 -11.5q-22 0 -38 24t2 72q21 55 83.5 171t82.5 155.5t32.5 67.5t25 60t18.5 63q5 25 -16 10q-24 -17 -63 -50.5t-125.5 -117
t-109.5 -100.5q-17 -13 -37.5 -22t-38 -7t-26.5 14q-18 25 -1 103q9 39 23.5 82t52 117.5t50.5 117.5z" />
    <glyph glyph-name="Z" unicode="Z" horiz-adv-x="537" 
d="M459 552h-46q-77 3 -163 25t-113 60q-7 10 -2.5 20.5t17.5 15t30 -2.5t34 -28q8 -9 37.5 -20t87 -20t116 -7t93.5 15q9 -1 22.5 -13.5t8.5 -19.5q-10 -14 -40.5 -46t-72.5 -63q-11 -5 -31 5q-151 -124 -339 -369q-17 -23 2 -35q84 -52 187 -96.5t191 -68.5t153 -24
q83 0 165 22q6 2 7 -3.5t-2.5 -13.5t-10.5 -11q-79 -30 -189 -30q-87 0 -203.5 35.5t-349.5 150.5q-9 -8 -26.5 -3.5t-24.5 9.5q-3 2 -3 7.5v7.5q-18 9 -28 22t-10 25q0 6 16 18.5t23 11.5q1 0 10.5 -5t16.5 -6.5t10 -1.5q11 -1 26 16q239 280 401 421z" />
    <glyph glyph-name="bracketleft" unicode="[" horiz-adv-x="470" 
d="M269 655q-6 2 -12 1.5t-9 -28.5q-11 -96 -31 -231t-41.5 -259t-42.5 -204q-4 -15 -1 -20.5t8 -6t13 1t10 1.5q1 0 5.5 0.5t60.5 9t65 6.5t26 -15t18 -21q1 -7 -7 -15t-20.5 -10t-24.5 0q-30 6 -84 -3.5t-94 -23.5q-14 -5 -32 -1.5t-31.5 19.5t-13.5 35q0 22 27.5 58.5
t56.5 63.5q15 59 39 192t41 262.5t17 193.5q0 14 -10 19q-26 13 -36 39q-3 7 24 21.5t38 14.5q6 0 15.5 -9.5t18.5 -26.5q7 -14 52 -26q10 -3 56.5 -8.5t58.5 -12t16 -9.5q1 -1 3.5 -4.5t3.5 -13t-7.5 -21t-23.5 -9.5q-22 2 -72.5 15.5t-79.5 24.5z" />
    <glyph glyph-name="backslash" unicode="\" horiz-adv-x="468" 
d="M37 691q-3 4 10 10.5t20 6.5q1 0 8.5 0.5t13.5 0.5t12 -2t10 -6.5t6 -10.5q28 -77 53 -160t82.5 -281.5t86.5 -279.5q3 -8 14.5 -4.5t15.5 -0.5q10 -11 24.5 -40.5t9.5 -42.5q-9 -22 -24 -27t-29 4q-8 1 -14 11.5t-13 51.5q-13 28 -31.5 78.5t-54.5 168.5t-51.5 168.5
t-33 100.5t-32.5 88t-36 83.5t-47 82.5z" />
    <glyph glyph-name="bracketright" unicode="]" horiz-adv-x="456" 
d="M275 642q-26 -4 -62 -4t-60.5 8.5t-31.5 20t-8 19.5q-1 13 13.5 22.5t22.5 7.5q4 -1 5 -7.5t5.5 -8.5t7.5 -2q19 -3 77.5 8.5t64.5 11.5q13 0 32.5 -9.5t29 -22.5t9.5 -24q0 -17 -7 -52t-18 -65q-4 -11 -10 -15t-29 -5q-19 -73 -37 -201.5t-26 -232t-3 -157.5
q0 -2 1 -14.5t10 -15.5q15 -5 30 -17.5t14 -24.5q-1 -13 -20.5 -23t-34.5 -12q-8 -1 -16 3.5t-18 19.5t-10 16q-29 0 -49 -3t-42 -13q-10 -2 -29 1.5t-37.5 14.5t-16.5 20q1 2 3 6.5t19 21t18 17.5q15 -1 58 -8t76 -7q2 51 10.5 141.5t35 298t32.5 267.5q3 21 -9 19z" />
    <glyph glyph-name="asciicircum" unicode="^" 
d="M69 125q29 44 89 124.5t234 292.5q6 8 4 22t-1 15q3 4 20 12t23 8q14 0 31 -19t27.5 -50.5t14.5 -62.5q1 -7 -4.5 -11t-5.5 -7q6 -43 29 -123t35 -113q3 -8 19 -17t16 -17q0 -4 -18 -22.5t-25 -20.5q-11 -4 -28.5 11t-32.5 38q-2 4 1 5t3 5q-4 65 -33 176.5t-48 141.5
q-40 -36 -106 -116t-126 -170q-10 -14 -7.5 -19t10.5 1q7 5 15.5 14.5t10.5 13.5t4.5 3t-0.5 -7q0 -1 -1.5 -3t-19 -29.5t-29.5 -54.5t-15 -44q-1 -9 -16.5 -16t-26.5 -7q-21 0 -37 15t-6 31z" />
    <glyph glyph-name="underscore" unicode="_" horiz-adv-x="611" 
d="M5 -108q28 -8 85.5 -12.5t235 -0.5t251.5 0q6 -1 13.5 9t10.5 8q4 -2 28 -13.5t23 -16.5q-2 -14 -17.5 -26.5t-23.5 -10.5q-76 17 -187 17q-77 0 -199 -6t-221 -17q-13 -1 -20 11.5t-7 36.5q0 7 10.5 15t17.5 6z" />
    <glyph glyph-name="grave" unicode="`" 
d="M262 652q-2 1 -2.5 8t3.5 16.5t10 9.5q9 0 18.5 -7.5t11.5 -15.5q16 -5 52 -67.5t51.5 -83.5t27.5 -31q3 -7 4 -15t-1 -9q0 -6 -2 -10t-5 -4q-10 0 -23 10q-19 15 -64 73.5t-81 125.5z" />
    <glyph glyph-name="a" unicode="a" horiz-adv-x="519" 
d="M274 317q21 -13 24 -25l35 59q12 8 32.5 0.5t28.5 -15.5q2 -2 4.5 -10t-3.5 -21q-8 -17 -19.5 -34.5t-18.5 -19.5q-28 -60 -37 -116q-10 -59 5.5 -74.5t60.5 8.5q52 27 131 89.5t118 110.5q19 -1 20 -15t-15 -29q-55 -53 -146 -124.5t-142 -94.5q-22 -10 -46 -6.5
t-38 24.5t-11 64q1 17 5 35t24 87q1 5 -1 6t-4 -3q-9 -15 -57 -82.5t-80 -102.5q-13 -14 -32 -23t-42.5 -4t-35.5 29.5t-9 57.5q4 41 17.5 84t37 79t54 60.5t57.5 24.5q20 0 44 -5.5t39 -13.5zM108 51q29 22 78 82t94 130h-6q-6 0 -20.5 10t-28 14.5t-27.5 4.5
q-9 0 -21.5 -6t-20.5 -14q-30 -30 -50.5 -79t-25.5 -103q-3 -27 2 -41t26 2z" />
    <glyph glyph-name="b" unicode="b" horiz-adv-x="478" 
d="M28 287l74 2q7 25 26 85t43 126.5t44 119.5t21 57q9 26 10.5 36t-3.5 15q1 9 9.5 15t25.5 5q8 -1 18 -25t10 -39q0 -17 -22 -53q-1 -2 -5 -4t-7 4q-9 -9 -22 -37q-26 -55 -57 -137.5t-56 -166.5h48q88 0 130 -25.5t42 -78.5l-2 -23q103 70 227 123q16 7 29.5 -0.5
t13.5 -17.5q0 -1 -1.5 -3t-20.5 -9t-31 -13q-89 -41 -136 -67t-92 -58q-27 -68 -120 -129q-32 -21 -59 -22.5t-38 7.5t-11 16q0 2 4 10t15 14q20 8 46.5 24t70.5 49.5t58 43.5l6 34q5 40 -21.5 58.5t-90.5 14.5l-83 -5q-32 -122 -38 -214v-21t6 -35.5t6 -24.5
q-2 -3 -15.5 -9t-26 -4.5t-16 8.5t-3.5 13q0 105 51 285l-29 1q-11 0 -23 10t-13.5 23t8.5 22z" />
    <glyph glyph-name="c" unicode="c" horiz-adv-x="361" 
d="M223 271q-26 4 -62 -27.5t-58 -72t-27 -69.5q-11 -59 10 -81t70 -5q16 6 39 16t55.5 28t66.5 40t57.5 38.5t47.5 33t28 19.5q5 2 6 -1t-1.5 -9.5t-7.5 -10.5q-60 -53 -151 -115t-146 -76q-5 -2 -3 -4.5t-1 -3.5q-24 -7 -48.5 -5t-44 19t-30 48t-3.5 72q13 75 61 135
q23 28 53 51q4 3 4.5 9.5t4.5 9.5q34 23 63 27.5t39 -8.5q2 -2 7 1t8 1q13 -8 25.5 -22.5t12.5 -27.5t-10 -25t-24 -12q-35 0 -41 27z" />
    <glyph glyph-name="d" unicode="d" horiz-adv-x="571" 
d="M293 281q81 94 133 171q17 46 43 111t29 72q4 10 17 39t22.5 45.5t18.5 16.5q31 0 29 -35q5 0 6.5 -9.5t-6.5 -31.5q-27 -70 -64.5 -134.5t-72.5 -106.5q-51 -150 -63 -264q-10 -92 19 -125.5t87 -6.5q21 10 49 31.5t54 50t26 32.5q8 4 14 1t10 -12t-2 -16
q-23 -27 -61.5 -61t-77.5 -57q-32 -19 -62 -21t-53 14.5t-35 53.5t-10 93q4 82 48 219q-34 -45 -78 -97q11 -23 8 -46q0 -3 3 -2.5t4 -9.5q1 -20 -11 -35t-25.5 -18.5t-20.5 -0.5q-11 4 -13 24q9 21 10 37q-51 -60 -111 -121q-14 -27 -37 -46.5t-46 -29.5
q-29 -12 -47.5 -5.5t-26.5 27t-5 47t12 47.5q27 60 62.5 101t74.5 63.5t71 22.5q23 0 43.5 -8t34.5 -20zM137 113q73 73 126 133q-6 12 -17 19t-24 7q-25 0 -56.5 -20t-63.5 -60t-46 -69q-29 -68 -5.5 -70.5t86.5 60.5z" />
    <glyph glyph-name="e" unicode="e" horiz-adv-x="383" 
d="M479 244q6 1 12.5 -1t6.5 -7t-5 -11q-51 -61 -120.5 -117t-133.5 -86t-118 -34q-25 -8 -47 -5t-38.5 22t-22 47.5t-3.5 47.5q6 72 57 145t122 119q3 2 6 3t6.5 1.5t6 -0.5t5 -3t3.5 -2q2 -1 7 2.5t9 3.5q7 0 18.5 -11.5t23.5 -36t13 -42.5q1 -23 -16 -38q-2 -16 -6 -20
q-63 -77 -196 -150q4 -37 33 -41t90 16q67 22 145.5 75t141.5 123zM210 316q-3 0 -13 -2.5t-35 -22t-55.5 -72.5t-37.5 -106q32 15 75.5 46.5t72.5 67t30 62.5q0 7 -15.5 17t-21.5 10z" />
    <glyph glyph-name="f" unicode="f" horiz-adv-x="337" 
d="M223 335q26 42 50.5 102.5t35 128.5t3.5 116q-35 -15 -66 -70t-73 -204q-17 -57 -38 -169h33q52 0 131 13.5t155 40.5q3 0 8 -3.5t3 -10.5t-13 -14q-48 -30 -140.5 -50t-172.5 -22l-13 -1q-17 -99 -44 -283.5t-35 -221.5t-12 -39q-12 -2 -25 -10t-21 -8q-41 0 -84.5 61.5
t-71.5 142.5q2 1 8.5 1t9.5 -6q11 -30 41 -72t53 -59q31 -23 47 -13t24 35q1 3 -0.5 3.5t-1.5 2.5q10 51 36 217t41 250q-23 1 -65.5 5t-54.5 -1q-15 10 -23 24t0 26t25 12t55.5 -7.5t71.5 -10.5q47 253 91 342q5 10 5.5 22t4.5 20q29 70 50.5 101.5t43.5 31.5q11 0 24 -12
t22.5 -43t8.5 -71q-1 -61 -16.5 -134.5t-37.5 -118.5q-13 -26 -30.5 -38t-42.5 -6z" />
    <glyph glyph-name="g" unicode="g" horiz-adv-x="442" 
d="M-204 -250q1 0 3.5 -1t21.5 -24.5t45 -43.5t59 -35.5t74 -24.5q85 -20 145 45q64 69 107 221t56 346q1 23 -4.5 24t-16.5 -20q-7 -13 -29.5 -55t-45.5 -77t-58 -73q-6 -5 -12.5 -5.5t-11.5 -5.5q-20 -18 -44.5 -15t-41.5 21t-21.5 34t-4.5 27q0 35 14.5 74t50.5 79
t81.5 65.5t81.5 34.5q48 36 66 33l10 -4q12 9 24 9q26 0 22 -55q-19 -264 -64.5 -424t-122.5 -248q-21 -24 -53 -43.5t-71.5 -23t-65.5 13.5q-9 6 -12 2.5t-15 1.5q-35 14 -74.5 38.5t-63 53t-29.5 55.5zM196 286q-37 -26 -68 -67t-44 -79.5t-14 -64.5q0 -8 6 -15t20.5 -2.5
t28.5 21.5q52 39 128 183q14 27 -10 24q-19 -2 -47 0z" />
    <glyph glyph-name="h" unicode="h" horiz-adv-x="536" 
d="M179 583q3 5 11 8.5t14 3.5q3 0 13 -4.5t21 -14t11 -16.5q-2 -20 -22.5 -71.5t-24.5 -64.5q-4 -12 -12 -10.5t-10 1.5q-19 -43 -45.5 -144t-42.5 -183q-2 -11 5 -15t11 2q52 66 135 154t93 88q9 0 23 -6t18 -11q5 -7 7.5 -28.5t7.5 -28.5q4 -10 -9.5 -78t-16.5 -92.5
t-1.5 -34t2.5 -12.5q50 28 123 95t132 132q11 3 17 -9t-6 -23q-23 -21 -70 -71.5t-67.5 -72t-39 -39t-35.5 -31.5t-39 -28t-41 -15q-10 0 -18.5 18.5t-3.5 41.5q-11 18 2.5 95.5t14.5 99.5t-4 31q-56 -15 -182 -184q-3 -20 -10.5 -37t-24.5 -33q-11 -10 -24 -10
q-3 0 -13.5 -10t-14.5 -10q-6 0 -12 6.5t-9 15.5q-1 2 -1 5t3 21q5 44 15.5 100.5t26.5 115t53.5 176.5t39.5 177z" />
    <glyph glyph-name="i" unicode="i" horiz-adv-x="310" 
d="M81 351q10 9 23 10t18 -4q3 -3 1.5 -10t1.5 -9q20 -14 17 -51q1 -11 -5 -31.5t-36 -91.5t-39 -104q-8 -29 -2.5 -43.5t25.5 -9.5q64 30 150.5 98t139.5 126q7 2 10.5 -3t1 -13t-7.5 -14q-27 -34 -86.5 -86.5t-126 -100.5t-89.5 -49q-12 -6 -28.5 -4t-28 17t-7.5 34
q-4 15 2.5 48t28.5 103t31 103.5t9.5 54.5t-3.5 30zM215 534q-15 -3 -32 5t-24 20t-7 21t19.5 16.5t48.5 10.5q14 -14 14 -21q0 -10 -5.5 -30.5t-13.5 -21.5z" />
    <glyph glyph-name="j" unicode="j" horiz-adv-x="380" 
d="M193 379q8 3 24.5 -4t24.5 -15.5t7 -13.5q-11 -55 -61 -202q18 2 115 10.5t151 16.5q11 -11 10 -19t-18 -15q-12 -5 -38 -9.5t-108.5 -9t-123.5 -8.5q-84 -255 -128 -474q-3 -13 -15 -20t-39 -9q-2 0 -5 0.5t-6.5 6.5t-5.5 8q-52 10 -91 76.5t-39 149.5q0 127 50 185
t154 87q54 14 96 19q34 141 41 208q-4 8 -4 18.5t9 13.5zM31 -273q69 226 107 378q-135 -21 -197.5 -77t-62.5 -149q0 -78 26.5 -142t74.5 -94q14 6 26.5 23.5t25.5 60.5zM318 567q-10 -2 -25.5 4t-30.5 22t-14 31q1 18 43 22q8 -8 23 -26t15 -23q0 -16 -2.5 -22.5
t-8.5 -7.5z" />
    <glyph glyph-name="k" unicode="k" horiz-adv-x="589" 
d="M294 664q24 6 40 -8.5t17 -34t-6 -31.5q-21 -40 -69.5 -99t-77.5 -82q-31 -48 -66 -143.5t-45 -140.5q-7 -34 -4 -54.5t14 -22.5q25 21 87 94.5t96.5 107t67.5 61.5t77 56q17 -1 34 -12.5t20 -22.5q5 -23 -15 -38q-7 -11 -26 -34t-60.5 -63t-55.5 -57.5t-14 -30.5
t19 -40.5t46.5 -45t61.5 -15.5q31 5 68.5 26t74 54t40.5 44q1 6 4.5 11.5t9 4.5t8 -7.5t1.5 -13.5t-5 -13q-23 -34 -65 -69.5t-80.5 -53.5t-66.5 -21q-41 -4 -90.5 27.5t-76.5 72.5t-33 73q-18 -23 -50.5 -70t-50.5 -68q-15 -17 -40 -17t-40 13q0 10 -3.5 17t-3.5 10
q-3 57 28 155t91 224.5t139 256.5zM364 283q-64 -52 -113 -106q2 -1 8.5 -5t11.5 -3.5t10 3.5q14 9 50 47t46 56q5 9 1.5 12.5t-14.5 -4.5z" />
    <glyph glyph-name="l" unicode="l" horiz-adv-x="309" 
d="M222 638q9 4 22.5 4t18.5 -7q10 -3 13 -18t-3 -26.5t-15 -16.5q-2 -5 -28 -69t-47 -65q-32 -79 -57.5 -176.5t-31.5 -174.5q-4 -49 7 -64.5t33 -9.5q42 11 122.5 82.5t137.5 141.5q10 3 11.5 -6.5t-7.5 -23.5q-31 -46 -86 -103t-101.5 -93t-74.5 -42q-25 -5 -43 -0.5
t-29.5 17.5t-15.5 38.5t2 51.5q-1 42 19.5 125.5t66 214.5t86.5 220z" />
    <glyph glyph-name="m" unicode="m" horiz-adv-x="663" 
d="M133 400q4 1 17.5 -2t28 -14t14.5 -25q0 -1 -1 -5.5t-8 -22l-9 -22.5q-15 -11 -35 -46t-47.5 -98.5t-29.5 -68.5q-5 -10 -4 -14.5t4.5 -2t5.5 6.5q8 16 78.5 115t98.5 131q5 7 7 8t4 1q11 2 27.5 -6t27.5 -28t10 -55q0 -5 -2 -8.5t-2 -8.5l-4 -112q0 -9 3 -9.5t7 5.5
q6 8 37.5 53t54.5 74t43 47q12 11 21 11.5t12 0.5q9 1 18.5 -6t16 -21.5t5.5 -20.5q0 -2 -2 -8t1 -11q5 -9 6.5 -13.5t-0.5 -13.5q-3 -16 -9 -82t-4 -91q1 -12 6.5 -18.5t21.5 2.5q14 8 40.5 28t41.5 35q8 -3 7.5 -12.5t-12.5 -22.5q-71 -79 -107 -79q-13 0 -25 7t-16.5 21
t-3.5 29q0 2 2.5 2t2.5 2q-1 9 -1 27.5t5 88.5t3.5 90t-7.5 24q-19 -20 -42.5 -50t-41.5 -62t-36 -70.5t-27 -43.5q-2 -1 -14 0t-27 -10q-24 9 -29 23.5t3 36.5q-1 7 -1.5 22t1.5 50t3 61t-1.5 44t-5.5 26q-10 -3 -30.5 -22.5t-53.5 -64t-65.5 -105t-50.5 -109.5
q0 -9 -7.5 -14t-17.5 3q-7 -5 -21 -3.5t-22 14t6 29.5q2 13 8.5 37.5t19 60.5t51.5 138.5t52 146.5z" />
    <glyph glyph-name="n" unicode="n" horiz-adv-x="556" 
d="M146 357q7 2 21 2.5t21 -0.5q4 -1 7.5 -14.5t1.5 -20.5q-1 -4 -4 -4.5t-7 -4.5q-100 -233 -87 -254q1 1 3 3.5t9.5 11t28.5 34.5t36 45t32 39.5t31 35.5t31 32.5t39.5 37.5t47.5 36q9 6 34 11q28 6 35 -26t-12 -76q-1 -2 -7 -8t-4 -11q-3 -12 -19 -62.5t-18 -73t-2 -29.5
q1 -18 8 -23.5t22 0.5q47 21 123 83t140 134q5 -2 9.5 -11t-0.5 -14q-57 -69 -136.5 -139t-131.5 -95q-21 -10 -43 -12t-37 11.5t-16 37.5q-1 7 2.5 10.5t3.5 8.5q-3 11 0.5 32.5t28.5 92.5t30 102q2 17 -22 1q-36 -23 -70 -58t-60 -70t-44 -63.5t-38.5 -61.5t-24.5 -40
q-3 -5 -16 -7.5t-27 0t-16 14.5q-9 4 -11 29t2 44q15 64 45.5 149t60.5 141z" />
    <glyph glyph-name="o" unicode="o" horiz-adv-x="415" 
d="M95 336q0 7 9.5 13.5t28.5 9t27 2.5q5 0 10.5 -7.5t8.5 -18.5q13 0 37 -7.5t53 -22t44 -25.5q24 -17 39 -41.5t10 -45.5t-68.5 -88.5t-105.5 -100.5q-51 -38 -100 -24q-24 7 -40.5 26t-18.5 50t4 61q3 18 24 67.5t29.5 84.5t8.5 67zM257 272q-33 -2 -51 -2t-34 6
q-1 -2 -3 -5t-23.5 -36t-40.5 -73.5t-23 -75t6 -59.5q14 -37 89 22q41 34 73.5 71.5t45.5 65.5q8 17 4.5 36.5t-16.5 32t-27 17.5z" />
    <glyph glyph-name="p" unicode="p" horiz-adv-x="535" 
d="M388 139q55 43 125.5 88.5t131.5 76.5q19 9 35.5 3.5t18.5 -16.5t-4 -18.5t-27 -13.5q-102 -27 -295 -171q-25 -81 -46 -105q-6 -6 -21 -8.5t-29 -0.5l-7 -7q-19 -8 -28.5 7t1.5 30q24 30 68 71q12 39 27.5 104.5t16.5 101.5q1 23 -9 25t-31 -16q-33 -28 -101.5 -136.5
t-132 -244t-90.5 -230.5q-2 -7 -2 -21t-1 -19q-4 -19 -18.5 -31.5t-28.5 -15.5q-7 -1 -18 4.5t-14 15t0 17.5q39 105 95 284.5t112 407.5q1 4 5 6t12.5 0.5t9.5 -1.5q8 0 19 -8t14.5 -20t0.5 -24q-2 -9 -15.5 -46.5t-55 -138.5t-43.5 -108t-2.5 -12.5t2 -4.5t6 6t7.5 11
q2 3 6.5 11t47 87t88.5 149t83.5 105t65.5 33q8 0 21 -14.5t19.5 -33.5t6.5 -35q0 -18 -7.5 -60t-18.5 -84z" />
    <glyph glyph-name="q" unicode="q" horiz-adv-x="472" 
d="M167 337l32 -4q3 -1 11 -9t11 -16.5t1 -12.5q-3 -7 -29.5 -27.5t-33.5 -23.5q-3 -1 -9 3.5t-10 3.5q-12 -9 -32.5 -38t-41.5 -73.5t-24 -74.5q-1 -13 4.5 -17.5t24.5 9.5q34 26 95 105.5t75 130.5q0 3 4.5 8.5t17.5 5.5q1 0 5.5 -1.5t13.5 -10t10 -8.5q1 -1 0.5 -9
t4.5 -8t16.5 -19t16.5 -38t4 -30q0 -5 -6.5 -13t-7.5 -14q-1 -2 -11.5 -50.5t-20.5 -93.5t-18 -80.5t-10 -40.5q-4 -11 0 -13t11 10q34 56 94 139t133 168.5t81 90.5q7 4 25.5 4.5t27.5 -5.5q2 -1 2.5 -10.5t-1.5 -15.5q-47 -30 -109 -94.5t-123.5 -149t-110.5 -178
t-71 -177.5q-1 -5 -11.5 -7.5t-16.5 -1.5q-2 0 -1.5 -9.5t-5.5 -11.5q-10 -3 -27 7t-17 23q0 5 40.5 122t60.5 188.5t28.5 118t8.5 78.5q0 28 -4.5 48t-12.5 26q-2 1 -3 -4t-2 -6q-3 -4 -8 -10.5t-72.5 -98t-112.5 -129.5q-42 -28 -65.5 -20.5t-23.5 37.5q0 13 2 28.5
t18 40.5q0 20 21 61.5t67.5 102.5t84.5 94z" />
    <glyph glyph-name="r" unicode="r" horiz-adv-x="418" 
d="M122 333q-3 1 -6 8.5t-3 12.5t9.5 10t16.5 5q8 0 25.5 -10t20.5 -17q7 -14 -19.5 -85t-32.5 -92q-2 -7 1 -8t7 4q33 39 121.5 107t120.5 68q7 0 19 -8.5t24.5 -27t12.5 -33.5q0 -20 -14.5 -32t-31.5 -9q-8 2 -19.5 22t-17.5 21q-37 -5 -105 -57t-133 -126
q-4 -7 -16.5 -44t-19.5 -47q-7 1 -17 -5t-12 -6q-6 1 -17 13t-7 22q86 202 93 314z" />
    <glyph glyph-name="s" unicode="s" horiz-adv-x="344" 
d="M-18 67q29 -18 76.5 -30.5t83.5 -12.5q31 0 51 6t25 13q10 13 -8 28q-12 10 -55 42.5t-63 52t-27 26.5q-12 1 -20.5 17t-7 41t15.5 33q78 48 120.5 69t70 28.5t44.5 7.5q12 0 19 -7q10 -8 16 -26t6 -28q0 -9 -4 -13t-10 1q-31 3 -102 -26.5t-106 -56.5q-3 -14 9.5 -34
t72.5 -60.5t76 -58.5q11 -12 17.5 -28t1 -30.5t-20.5 -21.5q-29 -15 -77.5 -15.5t-111.5 21.5t-97 50q-9 7 -5 11.5t10 0.5z" />
    <glyph glyph-name="t" unicode="t" horiz-adv-x="303" 
d="M466 451q-74 5 -229 -11q-34 -70 -45 -101q-2 -5 -8 -5.5t-9 -5.5q-29 -57 -56.5 -139t-36.5 -152q-2 -13 0.5 -17t13.5 1q64 29 174 121t168 165q8 -1 15 -7.5t6 -14.5t-7 -14q-76 -77 -175.5 -164.5t-162.5 -125.5q-2 -1 -7.5 -4t-22.5 -8.5t-34.5 -1t-14.5 27.5
q2 48 31.5 147.5t106.5 290.5q-116 -15 -168 -35q-31 -37 -38 -43.5t-12 -8.5q-3 -1 -10 7t-12 25t-4 25q2 19 20 27t74 19q62 11 165 21l70 171q21 1 37.5 -15.5t13.5 -35.5q-3 -20 -22 -37q-5 -15 -15.5 -39.5t-17.5 -38.5q111 7 211 7q7 0 10 -4.5t-9 -26.5z" />
    <glyph glyph-name="u" unicode="u" horiz-adv-x="567" 
d="M124 338q15 8 30.5 2t26 -26.5t7.5 -30.5q-2 -8 -14 -26t-31 -37q-17 -22 -34.5 -80t-19.5 -95q-1 -10 4.5 -14t28.5 5q39 15 101 75t86 112q-1 4 0 9.5t5 11.5t10 7q14 2 34 -3q6 -2 12 -20t4 -30q-1 -2 -7.5 -5.5t-8.5 -4.5q-8 -41 -11.5 -102.5t11.5 -68.5
q14 -6 62 19.5t127.5 88.5t110.5 102q7 -1 7 -9.5t-7 -16.5q-31 -38 -89.5 -91t-124 -95.5t-88.5 -40.5q-4 3 -9.5 3t-8.5 2q-21 12 -34.5 37t-12.5 62.5t10 69.5q1 2 1 4.5t-1.5 2t-4.5 -4.5q-28 -37 -64.5 -77.5t-62.5 -63.5t-40 -30q-29 -14 -39 -7q-3 2 -13.5 -4
t-20.5 -3q-16 5 -24 23.5t-1 46.5q0 14 8.5 49.5t43 132.5t41.5 121z" />
    <glyph glyph-name="v" unicode="v" horiz-adv-x="435" 
d="M27 364q3 4 22 0t42 -17.5t22 -27.5q-1 -13 -21.5 -46.5t-20.5 -46.5q11 -81 15.5 -102t11 -41.5t14.5 -36t15 -25.5q5 -7 11.5 -5t12.5 14q78 147 140 227.5t92 80.5q12 0 20.5 -8t14.5 -31q51 -44 50 -50q-1 -8 -9 -14t-19 -6q-2 0 -20 13.5l-26 19.5q-15 10 -28 4.5
t-27 -20.5q-19 -21 -53.5 -68.5t-60 -92.5t-37.5 -75q-1 -17 -16.5 -28t-45.5 -11q-23 0 -43.5 30t-36.5 91.5t-20 150.5q0 1 -0.5 4t-7 33t-4 51.5t12.5 32.5z" />
    <glyph glyph-name="w" unicode="w" horiz-adv-x="595" 
d="M108 242q-1 1 -5.5 6t-5.5 11q-1 11 3 36.5t16.5 51t29.5 25.5q6 0 16.5 -12.5t17.5 -31.5q5 -2 6 -6.5t-4 -15.5q-1 -3 -10 -21t-16.5 -38.5t-8.5 -41.5q0 -3 -4.5 -2.5t-4.5 -3.5q-21 -70 -26 -155q-1 -10 4 -9.5t10 6.5q38 46 79 112t69 133q-1 12 5 18.5t14 6.5
t18.5 -8t11.5 -17q5 -3 10.5 -8t4.5 -6q-9 -18 -7 -30q4 -33 14 -73t24.5 -67.5t27.5 -39.5q11 -10 18 -10.5t14 14.5q12 24 19.5 52.5t12 69.5t-1.5 165q1 6 5 10.5t10 4.5q9 0 21.5 -7.5t13.5 -23.5q1 -54 -4 -117.5t-17.5 -112.5t-26.5 -76q-3 -2 -16.5 -15.5t-28.5 -9.5
q-37 9 -70.5 66t-47.5 123q-5 25 -18 4q-2 -4 -9 -15t-59.5 -98t-71.5 -115q-3 -5 -14.5 0t-15.5 4q-11 -7 -20 -3t-12 12.5t-4 12.5q-7 42 3 115t31 130z" />
    <glyph glyph-name="x" unicode="x" horiz-adv-x="453" 
d="M394 373q5 2 25.5 2t21.5 -3q1 -5 -0.5 -18.5t-7.5 -14.5q-18 -2 -46 -11.5t-87 -45.5q-4 -2 -6 0t-8 1q-7 -1 -31 -26t-67 -86q57 -78 103 -83q16 -2 34.5 -0.5t50.5 18.5q5 3 10 -3.5t1 -10.5q-1 -1 -6.5 -4.5t-6.5 -7.5q-1 -11 -21 -20.5t-36 -10.5q-38 -2 -76 14
t-81 67q-48 -71 -79 -129q-1 -7 0 -23t-1 -29q-2 -4 -12.5 -9.5t-17.5 -5.5q-9 -9 -24 -9q-10 -1 -17.5 11.5t-7.5 21.5q28 40 80 120.5t54 82.5q-42 54 -69 81q-15 15 -14 33t13 18q27 0 28 -10q11 -1 26 -16t46 -62q68 99 115 139t88 40q6 0 14.5 -6t11.5 -5z" />
    <glyph glyph-name="y" unicode="y" horiz-adv-x="524" 
d="M130 334q3 6 14 8.5t20 0.5q3 -1 12.5 -5t11 -11.5t-1.5 -13.5t-29.5 -53.5t-47.5 -95.5t-29 -93q-3 -17 0 -21.5t9 0t9 7.5q15 19 65 73.5t93 94.5t59 40q22 0 37.5 -41t18.5 -95t0 -95q31 21 58 23q18 0 32.5 -13.5t16.5 -32.5q2 -12 -4 -23.5t-15 -14.5t-22 5.5
t-17 10.5q-23 -2 -59 -30q-9 -44 -29 -113.5t-50.5 -138.5t-59.5 -96q-6 -6 -15 -5t-18 13t-12 27q-7 32 4.5 88t52.5 132.5t89 126.5q6 50 5 102.5t-9 92.5q-7 28 -33 10q-38 -27 -69.5 -64.5t-81 -108t-76.5 -73.5q-16 -2 -30 13t-13 34l6 23q10 111 108 312zM231 -307
q23 44 44 102t33 113q-27 -32 -49 -71t-31 -75.5t-10 -63.5q-1 -14 2 -15.5t6.5 3.5t4.5 7z" />
    <glyph glyph-name="z" unicode="z" horiz-adv-x="436" 
d="M41 299q31 2 115 19t103 17q24 0 44.5 -4t40.5 -18q8 -18 8 -39t-10 -37.5t-23 -26.5q-4 -48 -242 -190q-8 -6 -7.5 -8.5t7.5 -1.5q28 2 92.5 10t88.5 9.5t36.5 1.5t18.5 -2q5 -1 12 1.5t10 2.5q35 0 55.5 -9t20.5 -20q0 -10 -8.5 -22t-17.5 -17q-4 0 -18.5 10.5t-29 15
t-28.5 4.5q-44 0 -124.5 -12.5t-109.5 -15t-48 2.5q-12 -12 -19 -12q-10 0 -26 12t-16 28q0 11 7.5 16.5t29.5 6.5q82 41 135 73.5t120 89.5q22 19 37.5 43.5t15.5 38.5q0 8 -11 17t-23 8q-44 -5 -104.5 -23t-81.5 -22q-15 -2 -34.5 5.5t-24.5 21t9 26.5z" />
    <glyph glyph-name="braceleft" unicode="{" horiz-adv-x="470" 
d="M283 706q-19 3 -31 -21t-12 -83q0 -30 8.5 -86t8.5 -106q0 -35 -7.5 -65.5t-7.5 -34.5q0 -8 13 -23t13 -29q0 -3 -3 -15.5t-65 -151t-62 -202.5q0 -12 8.5 -20.5t25 -10t29.5 2.5q6 2 11 -4t4 -18q-1 -7 -9.5 -19.5t-18.5 -12.5q-11 0 -32.5 6.5t-42.5 22t-21 32.5
q0 21 5.5 52t19 70t52 127.5t42.5 125.5q2 21 -7 23l-26 -3q-7 1 -22 14.5t-14 22.5q1 7 23 16t28 15q12 13 18 38t6 50q0 34 -13.5 123t-13.5 129q0 22 14.5 44t31 31.5t26.5 9.5q20 0 46 -19.5t29 -30.5q1 -5 -1.5 -10.5t-11.5 -8t-12 -2.5q-5 0 -14 10t-15 11z" />
    <glyph glyph-name="bar" unicode="|" horiz-adv-x="723" 
d="M397 -151q1 -6 -9.5 -18.5t-20.5 -12.5q-11 0 -25 9t-14 26q-1 68 6 171.5t37 336t32 311.5q0 2 -0.5 5.5t-7 7t-7.5 7.5t-2.5 21t1.5 40t10 31q9 9 31 4t38 -20q8 -5 -1 -40.5t-11 -44.5q-3 -24 -27.5 -186t-34 -253.5t-12.5 -158.5t0.5 -130t16.5 -106z" />
    <glyph glyph-name="braceright" unicode="}" horiz-adv-x="409" 
d="M159 -142q22 -4 35 23t13 85q0 34 -4 77t-17.5 99.5t-13.5 69.5q0 15 3 29.5t13 23.5t10 16q0 8 -6 17.5t-6 23.5q0 3 2.5 14.5t36.5 91t48 123.5t16.5 66.5t2.5 29.5q0 35 -22 52t-57 5q-6 -2 -11 4t-4 18q1 8 7 16t21 8q24 0 48.5 -8.5t41 -29t16.5 -55.5
q0 -44 -14.5 -93.5t-47.5 -125.5t-36 -103q-1 -11 7 -20.5t14 -10.5l50 -15q6 -1 10 -12.5t2 -21.5q-1 -6 -28.5 -5t-34.5 -1.5t-9 -4.5q-14 -14 -17 -20.5t-3 -30.5q0 -28 10 -85t12.5 -96.5t2.5 -77.5q0 -65 -24 -91.5t-68 -22.5q-15 0 -32 9t-21 23q-1 5 1.5 10.5t11.5 8
t12 2.5q5 0 14 -7t15 -8z" />
    <glyph glyph-name="asciitilde" unicode="~" horiz-adv-x="834" 
d="M165 242q-19 7 -29 20.5t-3 32.5q12 29 47.5 75t68 75t52.5 29q26 0 52.5 -24t57 -85t43.5 -83.5t27.5 -34.5t26.5 -12q34 0 72.5 21t76.5 68q23 49 40 49q9 0 24.5 -7.5t16.5 -16.5q1 -8 -6 -22t-14 -24q-2 -3 -8.5 -1.5t-10.5 -1.5q-105 -120 -190 -120q-29 0 -53.5 20
t-42 48.5t-44 83t-39 67t-21.5 12.5q-11 0 -36 -19t-58.5 -63.5t-49.5 -86.5z" />
    <glyph glyph-name="exclamdown" unicode="&#xa1;" horiz-adv-x="513" 
d="M97 -281q68 138 102.5 225.5t44.5 147.5q1 7 8 9.5t18.5 -3t14.5 -13.5q-7 -42 -25.5 -103.5t-58 -170.5t-47.5 -132q-5 -6 -11.5 -8.5t-11.5 -0.5q-29 -2 -41 12.5t7 36.5zM260 292q-5 32 4.5 49.5t25.5 19.5q7 1 18.5 -2.5t23 -12.5t12.5 -17q3 -18 2.5 -27.5t-7 -15
t-14.5 -7.5q-38 -7 -65 13z" />
    <glyph glyph-name="cent" unicode="&#xa2;" horiz-adv-x="361" 
d="M256 302l-13 -1q-57 -193 -67 -298h18q77 0 182 74q4 2 5 -1.5t-1.5 -11.5t-4 -10.5t-2.5 -3.5q-2 -1 1 -4t-2 -6q-1 -1 -3 -2t-33 -19t-73.5 -31.5t-88.5 -14.5q-7 -111 26 -190q1 -4 -7.5 -9.5t-16.5 -5.5q-15 0 -25 48.5t-10 96.5q0 41 2 61q-48 6 -81 40t-33 84
q0 29 11 66t36.5 75t63 68.5t78.5 36.5l27 105q0 2 -0.5 13t3.5 23t20 24q10 7 19.5 -0.5t13.5 -23t-0.5 -31t-19.5 -22.5l-25 -90q28 -10 53 -39.5t25 -50.5q0 -9 -13.5 -15t-22.5 -6q-12 0 -31 22q-3 3 -2 19.5t-1 23t-8 6.5zM146 9q11 109 56 279q-23 -12 -53 -40
t-53 -70.5t-23 -75.5q0 -36 19.5 -60t53.5 -33z" />
    <glyph glyph-name="sterling" unicode="&#xa3;" horiz-adv-x="636" 
d="M35 266q8 1 30.5 1.5t104.5 -9t126 -10.5q15 54 34 127t40.5 158t22.5 88q3 12 12.5 40.5t21 40.5t18.5 12q11 0 22.5 -17t16.5 -50q2 -43 -7.5 -98t-33.5 -116.5t-48.5 -100.5t-31.5 -39q-4 0 -9 4.5t-7 7.5l-16 -57q44 1 116.5 6.5t74.5 5.5q16 0 16 -12q0 -4 -3 -11.5
t-7 -8.5q-130 -18 -209 -20q-38 -136 -63 -217q52 -8 143 -15q6 0 2.5 19t-3 25.5t6.5 6.5q3 0 16 -8t28.5 -23.5t15.5 -25.5q0 -17 -15.5 -32.5t-36.5 -14.5q-49 4 -172 23q-13 -41 -26 -73q-5 -5 -19 -13.5t-37 -11.5q-9 0 -29 24q-16 20 -49 73.5t-45 70.5q-5 7 -4.5 17
t12 14t27.5 -5q51 -28 148 -45q26 69 66 211l-237 8q-11 2 -19.5 12.5t-7.5 16.5q1 7 4.5 13.5t9.5 7.5zM158 -88q14 -10 41 41l-71 12q4 -17 13.5 -33t16.5 -20zM395 472l-31 -107q6 0 11 7q24 38 31 75q3 15 -2 21.5t-9 3.5z" />
    <glyph glyph-name="currency" unicode="&#xa4;" 
d="M506 542q9 0 27 -11.5t18 -20.5q0 -7 -15 -23t-37 -31q-4 -3 -13.5 -1.5t-11.5 -1.5l-38 -50q-1 -3 -2 -9.5t3 -12.5q14 -19 22.5 -42.5t8.5 -39.5q0 -25 -9.5 -49.5t-29.5 -41.5q-6 -5 -12 -4q-6 -3 -1 -5q5 -4 45 -42.5t59 -50.5q4 -2 4.5 -7.5t3.5 -9.5q17 -19 17 -26
t-14 -7q-17 0 -27 12q-4 5 -38.5 36t-56.5 53q-16 16 -34 8q-33 -14 -47 -16q-5 -1 -9.5 -4t-7.5 -3t-5 3t-6 2q-2 0 -14.5 -5t-19.5 -5q-5 0 -21.5 7t-18.5 4q-9 -10 -29.5 -47t-25.5 -42q-12 -12 -26 -22.5t-21 -10.5l-26 2q-5 0 -9 6.5t-4 12.5q0 1 1 4t8.5 8.5t9.5 7.5
q12 11 46.5 46.5t37.5 43.5q2 6 6.5 10t2.5 6q-11 13 -18 34t-7 42q0 61 24 92q9 11 1 18q-6 5 -51.5 39t-48.5 39q-2 3 -14 16.5t-12 19.5q0 8 5 22t11 15q12 3 20 -2t18 -19q4 -5 9.5 -5t10 -3.5t6.5 -5.5q4 -4 26.5 -29.5t32.5 -36t13 -11.5q7 -2 9 -2t10 3q6 3 8 7t6 4
l14 2q3 0 3 2.5t2 3.5q4 2 23 5.5t29 3.5q44 0 68 -15q52 59 62.5 71.5t12.5 15.5t4.5 14t5.5 17q1 2 10.5 7t15.5 5zM323 368q-12 0 -28 -4q-1 0 -2.5 -1t-3.5 -7q-1 -3 -8 -2.5t-10 -2.5q-42 -42 -42 -89q0 -15 9 -32.5t29 -30.5q2 -2 4.5 -0.5t3.5 1.5q4 -3 7.5 -3.5
t7.5 -0.5q31 0 61 16.5t42.5 39t12.5 40.5q0 24 -14.5 43t-34 26t-34.5 7z" />
    <glyph glyph-name="yen" unicode="&#xa5;" horiz-adv-x="548" 
d="M108 468q-5 -5 -10 -2.5t-2 9.5q7 17 12.5 66t3.5 79q0 10 8.5 17.5t25.5 7.5q8 0 15 -23t7 -41q0 -12 -8 -70t-8 -72q0 -20 12 -42t22 -22q23 0 47 6.5t43.5 22t42.5 41.5q14 15 51.5 70t44.5 71l3 9t2 10.5t4 6.5q9 4 23 7t21 -1q4 -2 12.5 -13.5t15 -28.5t1.5 -22
l-6 -6t-51 -45.5t-84.5 -90t-61.5 -93.5q85 -6 152 -16q5 -1 9 -11.5t1.5 -25t-11.5 -14.5t-19 9.5t-20 10.5q-44 4 -132 7l-18 -43q80 4 156 4q21 0 21 -14q0 -5 -5 -12.5t-16.5 -10t-22.5 4.5q-60 -5 -147 -16q-23 -79 -29 -174q-2 -37 6.5 -68.5t23.5 -45t29 -15.5
q7 -1 6.5 -8.5t-6 -12t-10.5 -4.5q-39 0 -64 44.5t-25 100.5q0 86 29 178q-58 -7 -117 -16q-7 -1 -15.5 4.5t-12.5 18.5t2 17q9 6 46.5 12.5t113.5 10.5q7 20 20 46q-115 3 -181 -8q-10 -2 -18 10t-7.5 21.5t5.5 10.5q59 17 219 7l11 28q1 3 2 7t-7 1q-23 -10 -36 -14.5
t-32 -5.5q-1 -4 -12 -2q-30 5 -47 25t-22.5 49.5t-5.5 58.5z" />
    <glyph glyph-name="brokenbar" unicode="&#xa6;" horiz-adv-x="749" 
d="M481 738q-1 -5 -3 -17t-27 -139t-30 -200q-1 -15 -12 -16t-17 9q-5 105 33 397q6 14 21 14q11 -1 24.5 -7t15.5 -17.5t-5 -23.5zM425 187q-19 -69 -37 -169t-20 -183q-1 -14 -17.5 -13.5t-23.5 11.5q15 195 21 260t13 122q6 14 21 14q19 6 33.5 0.5t15.5 -18t-6 -24.5z
" />
    <glyph glyph-name="section" unicode="&#xa7;" horiz-adv-x="526" 
d="M122 -52q14 -25 40 -31.5t53.5 1.5t46 20.5t18.5 20.5q0 2 -3.5 9t-51.5 64.5t-71.5 97.5t-32 70t-8.5 52q0 47 20.5 92.5t51.5 71t52 25.5q11 0 18 -3l-1 31q0 46 12 92.5t30.5 73t42.5 26.5q14 0 36.5 -9.5t47 -28t30.5 -26.5t5 -14.5t-10 -6.5q-12 0 -25.5 5t-33 16.5
t-25.5 11.5q-20 0 -40 -53t-20 -112q0 -30 15.5 -66.5t45 -69.5t40.5 -36q10 -3 22 -10.5t15 -13.5q3 -5 -10.5 -22t-20.5 -20q-12 -5 -40 4q-14 5 -75 -9t-78 -16.5t-27.5 -2.5t-17.5 2q19 -62 140 -192q15 -16 18 -35t-8 -37q-7 -12 -14 -18t-24 -7q-12 -7 -43 -20
t-69.5 -15t-63 12.5t-33.5 37.5q-3 9 1 18t18.5 15t26.5 5zM253 344q-80 0 -83 -132q29 -3 77 6.5t95 35.5q-16 15 -31.5 36.5t-25.5 43.5q-26 10 -32 10z" />
    <glyph glyph-name="dieresis" unicode="&#xa8;" 
d="M456 671q-23 -31 -47.5 -78t-25.5 -48q-8 -8 -18.5 -7.5t-18.5 5.5q5 19 17 56t17 79q22 47 34 47q13 0 26 -15.5t16 -38.5zM303 666q-19 -35 -34.5 -84t-25.5 -66q-6 -6 -11 -4.5t-21 19.5q2 15 17 76t13 94q3 9 14 18t21 9q19 0 27 -62z" />
    <glyph glyph-name="copyright" unicode="&#xa9;" 
d="M490 481q-31 18 -58 25q-15 3 -31 3q-15 0 -51.5 -8.5t-81.5 -26.5t-88.5 -47t-73.5 -68t-40 -77.5t-10 -69.5q0 -37 14 -75t46.5 -68.5t82.5 -49.5t114 -19q52 0 116.5 17.5t114.5 54.5t70 78t20 81q0 32 -11 73.5t-39 83t-64 71.5q2 -21 -6 -38q-3 -6 -5.5 -6.5t-2.5 4
t1 9.5q3 14 -2 28.5t-15 24.5zM402 339q-1 1 -7 4.5t-17 3.5q-31 0 -70.5 -20.5t-57.5 -49.5t-18 -58q0 -77 71 -77q41 0 84.5 11.5t67.5 25.5q3 1 5 1t3.5 -4t1 -11t-5.5 -10q-23 -15 -72 -29t-80 -14q-48 0 -81 25t-33 79q0 25 12 54t39 54.5t65.5 43.5t78.5 18
q19 0 32.5 -10t15.5 -25q6 -4 3.5 -15t-9.5 -11t-17 5t-11 9zM410 554q18 0 37 -9q39 -8 81 -38.5t76.5 -76t55.5 -100t21 -106.5q0 -26 -11.5 -60t-41.5 -68.5t-77.5 -65.5t-112.5 -51t-124 -20q-65 0 -121 17t-96 49t-61.5 77t-21.5 97q0 46 14.5 92.5t51 93.5t99 87
t128.5 61t103 21z" />
    <glyph glyph-name="ordfeminine" unicode="&#xaa;" horiz-adv-x="535" 
d="M276 469q2 5 14.5 6.5t14.5 -0.5q12 -11 21.5 -56.5t14 -62t12 -29.5t14.5 -18q3 -2 6 2t5 4q3 -1 15 -9.5t13 -11.5q1 -4 -9 -16.5t-15 -12.5q-33 -2 -56.5 26.5t-37.5 102.5q-1 6 -4 9t-6 0q-21 -32 -43 -56t-48 -24q-3 0 -10 -4.5t-9 -4.5q-14 2 -26 22t-12 36
q0 43 30 93t68.5 83.5t49.5 31.5q5 -1 12.5 6t11.5 7q26 0 55 -20.5t32 -28.5q2 -5 -11.5 -15t-24.5 -10q-3 0 -23.5 15.5t-26.5 15.5q-8 0 -37.5 -30.5t-51.5 -69.5t-31 -71q-2 -10 6 -10q15 0 44 33t43 67z" />
    <glyph glyph-name="guillemotleft" unicode="&#xab;" horiz-adv-x="698" 
d="M404 419q11 0 22.5 -10t11.5 -20q0 -2 -5 -7t-74 -34t-111.5 -53.5t-70.5 -47.5t-44 -42q22 -40 67.5 -78.5t95 -72.5t57.5 -41q4 -4 -7 -16t-21.5 -16.5t-14.5 -1.5q-50 30 -225 185q-6 3 -22.5 18.5t-16.5 21.5q0 7 4 19t9 17q3 3 23.5 6t32.5 10q6 3 22 12.5t126.5 80
t140.5 70.5zM582 388q15 0 29.5 -14.5t11.5 -35.5q-1 -4 -7 -7.5t-26.5 -10.5t-35.5 -11.5t-34.5 -13t-38.5 -18t-48 -28.5t-61 -49q15 -21 78.5 -76.5t89.5 -97.5q5 -4 -2 -14.5t-21 -13t-28 1.5q-4 8 -20.5 30t-74 70t-64.5 54q-6 3 -22.5 18.5t-16.5 21.5q0 7 4 19t9 17
q4 4 18.5 7.5t26.5 10.5q14 8 25 15t99.5 66t108.5 59z" />
    <glyph glyph-name="logicalnot" unicode="&#xac;" horiz-adv-x="797" 
d="M90 300q11 1 43.5 3t252 24t298.5 12q8 -1 19 5.5t14 6.5q7 0 13.5 -6.5t5.5 -14.5q-1 -5 8.5 -19.5t9.5 -26.5q0 -2 -0.5 -7.5t-18 -71.5t-20.5 -117q-1 -17 -15 -17q-9 0 -20.5 6.5t-19.5 19t-8 31.5q0 8 13.5 39.5t21 59t9.5 53.5q0 4 -0.5 11.5t-19.5 10.5
q-53 8 -140.5 4.5t-206 -25.5t-210.5 -48q-12 -3 -24 1.5t-20 18t-8 22.5q0 10 7 17t16 8z" />
    <glyph glyph-name="registered" unicode="&#xae;" 
d="M332 744q11 0 28 -5q31 16 65 16q27 0 58 -13.5t59.5 -43t49 -70t20.5 -76.5q0 -53 -28 -106t-74.5 -95t-103 -67t-108.5 -25q-43 0 -83 18t-70.5 50.5t-48 78.5t-17.5 99q0 43 15 86t49 77t83 55t106 21zM481 639q-41 34 -71 52.5t-60 23.5q-19 -8 -26 -13t-9.5 -3.5
t2.5 6.5l12 12q-32 0 -69 -14t-70 -41.5t-54 -69t-21 -92.5q0 -41 14 -79.5t43 -66.5t66.5 -43.5t73.5 -15.5q58 0 123 40t105 102.5t40 112.5q0 22 -12 52.5t-34.5 59.5t-56 48t-73.5 19l-17 -2q19 -11 46.5 -32t47.5 -44q2 -3 4 -7t0.5 -6t-4.5 1zM357 608q6 14 6 28
q27 -13 43.5 -39t16.5 -62q0 -25 -14 -50t-35 -40q2 -2 16.5 -20.5t23.5 -30.5t10 -15q2 -6 -4 -12t-11 -6q-6 0 -12 3.5t-8 9.5q-5 13 -18.5 28t-36 27t-43.5 17l9 26q40 -9 46 -7q7 1 20 14.5t20 31.5t7 34q0 14 -10 30.5t-29 26.5zM300 472l-8 1q-8 0 -9 -12t5 -14l3 -1
q-11 -36 -17 -62q-1 -4 -6 -7t-10 -3q-4 0 -9 6t-4 10q7 30 35.5 109.5t38.5 114.5q20 -3 35 -12q-1 -2 -22.5 -51t-31.5 -79zM326 646l-7 -32l-25 2q-9 0 -22 -4.5t-20 -4.5q-8 1 -15.5 9.5t-5.5 15t9 7.5q44 8 71 8zM346 665q7 0 12 -8.5t5 -20.5q-21 9 -37 10q1 6 6 12.5
t14 6.5z" />
    <glyph glyph-name="macron" unicode="&#xaf;" 
d="M167 574q27 -8 113.5 -6.5t116.5 1.5t57 -3.5t42 -9.5q20 -8 21.5 -22t-12.5 -24q-29 10 -71.5 12.5t-81.5 0t-66.5 -5t-52 -6t-26.5 -3.5q-18 -2 -31.5 2.5t-22 14.5t-9 22t5.5 19t17 8z" />
    <glyph glyph-name="degree" unicode="&#xb0;" horiz-adv-x="522" 
d="M311 653q-24 -8 -35 -14q29 -6 60 -20.5t50.5 -36.5t19.5 -41q0 -27 -22.5 -61t-72.5 -65.5t-91 -31.5q-18 0 -38 13t-33 36.5t-13 57.5q0 41 17.5 86.5t53.5 79.5t61 34q7 0 21.5 -6.5t24 -17t-2.5 -13.5zM363 540q0 22 -21.5 39t-51.5 24t-54 8q-24 -23 -38 -54.5
t-14 -66.5q0 -37 13.5 -50t36.5 -13q17 0 46 14t56 43.5t27 55.5z" />
    <glyph glyph-name="plusminus" unicode="&#xb1;" 
d="M364 550q23 20 38 11t14.5 -42.5t-15.5 -60.5l-20 -64q70 1 164 -4q25 -2 49 -10q2 -3 -2.5 -7t-18 -7t-26.5 -4l-181 -5q-41 -105 -54 -171q-10 -55 -46 -53q-8 0 -12 3.5t-3 7.5q11 36 24.5 74t30 80.5t21.5 56.5q-135 -9 -204 -25q-3 -8 -10 -14.5t-30 -5.5
q-10 9 -11.5 22t12.5 23.5t29 7.5q62 26 227 30q25 71 27 98q1 15 0.5 26.5t-2 21t-1.5 11.5zM71 72q46 -15 103.5 -21t114 -5t120.5 5.5t73 4.5l55 6q6 0 21 -10.5t15 -15.5q0 -6 -10.5 -15t-17.5 -9q-27 7 -38 5q-65 -7 -158 -11.5t-145 1.5q-31 -5 -67 2t-64 25
q-11 7 -13 21t11 17z" />
    <glyph glyph-name="uni00B2" unicode="&#xb2;" horiz-adv-x="445" 
d="M78 532q24 19 69 41.5t102 41t81 18.5q19 0 33 -11.5t14 -39.5q0 -31 -49.5 -98t-131.5 -121q-7 -5 -10.5 -10t2.5 -8t19 -4q52 -2 105.5 -9.5t69.5 -19.5q2 -2 1 -10.5t-9 -16.5t-19 -5q-18 8 -55.5 15.5t-87 9t-74.5 -3.5h-3.5t-9.5 -6q-9 -4 -28 6.5t-14 23.5
q76 30 144 94t103 127q13 23 6 38t-30 13q-27 -3 -60 -14.5t-64 -33t-53.5 -41t-26.5 -21.5q-8 -5 -19 -2.5t-18 11t-4.5 18.5t17.5 18z" />
    <glyph glyph-name="uni00B3" unicode="&#xb3;" horiz-adv-x="389" 
d="M91 599q14 -1 91.5 9.5t96.5 8.5q12 -1 27.5 -9.5t14.5 -15.5q-2 -16 -16 -37t-68.5 -59.5t-70.5 -57.5q1 -5 10.5 -9.5t36 -10t43 -9t30.5 -10.5t22.5 -16t8.5 -23q1 -19 -17.5 -40t-58.5 -35.5t-63 -11.5q-14 2 -26 8t-12 10q0 6 5 12t11 5q15 -2 38.5 2.5t46.5 19
t31 31.5q0 10 -12 17.5t-55.5 11t-49.5 9.5q-25 4 -42.5 14t-15.5 19q3 15 21 17q49 29 103 71.5t53 59.5q-13 6 -63 0.5t-57 -4.5q-37 -13 -52 -13q-11 0 -19 6t-5 16.5t13 13.5z" />
    <glyph glyph-name="acute" unicode="&#xb4;" 
d="M156 449l13 27q5 3 20 13.5t120 87.5t154 102q18 9 27 7q2 -1 5 -12t3 -15q-16 -8 -27 -24q-25 -13 -71.5 -45.5t-199.5 -152.5q-9 -7 -10.5 -7.5t-3 -0.5h-2.5q-9 0 -14 4t-9 9.5t-5 6.5z" />
    <glyph glyph-name="uni00B5" unicode="&#xb5;" horiz-adv-x="570" 
d="M-116 -416q-1 41 17 106t40 126t94 247.5t85 260.5q1 6 4.5 11.5t16.5 5.5q7 0 23.5 -7.5t17.5 -14.5q0 -1 3 -10t4 -20.5t-3 -28t-20 -32.5q0 -1 -11.5 -27.5t-21.5 -54.5t-13 -52.5t5 -35.5q4 -5 24.5 12.5t55 61.5t48.5 75q2 4 2 13t2 14q3 8 16.5 21t23.5 13
q11 0 32.5 -13t21.5 -21q0 -2 -1 -7.5t-18.5 -70t-17.5 -102.5q0 -20 11 -34t24 -16q51 -7 96 42q3 4 18 2q28 6 32 5.5t3 -3.5q-2 -4 -10 -9.5t-9 -7.5q-2 -3 -12.5 -12.5t-26.5 -20.5t-40.5 -23.5t-48.5 -12.5q-48 0 -69.5 42t-13.5 127q1 8 -1 10.5t-6 -1.5
q-7 -9 -40 -54.5t-53 -60t-39 -17.5q-3 0 -5.5 -2.5t-7.5 -2.5q-4 0 -25 14t-25 11q-21 -16 -68.5 -154t-56.5 -191q-1 -9 0 -14.5t3 -5.5t8.5 2t9 0t4.5 -7q2 -7 -4 -34.5t-14 -45.5q-2 -4 -11.5 -8t-31.5 -9q-5 -1 -13 7.5t-8 13.5z" />
    <glyph glyph-name="paragraph" unicode="&#xb6;" horiz-adv-x="594" 
d="M532 627q0 3 2.5 7t17.5 10q6 2 24.5 -5.5t28 -16.5t9.5 -15q0 -9 -8 -31.5t-26 -51.5t-31 -41q-1 -6 -21.5 -123.5t-32.5 -214.5t-14 -153.5t-1 -86.5q4 -31 10.5 -47.5t16 -31t13.5 -22.5q-28 -21 -47 -21q-15 0 -31.5 10.5t-17.5 31.5q-2 49 8 147t43.5 295t35.5 211
q-29 2 -30 14q0 3 -2 25.5t-8 40.5t-11.5 25t-13 11t-18.5 2q-1 -4 -2 -10t-26.5 -160t-49 -339t-19.5 -270q4 -34 8.5 -52t20.5 -49q-20 -25 -50 -25q-13 0 -29 15t-17 37q-1 19 7 47.5t18 49.5q8 113 36 317q-33 9 -68.5 44t-57 76.5t-21.5 86.5q0 37 18.5 98.5t55.5 115
t77.5 76.5t79.5 23q22 0 54.5 -21.5t64.5 -64.5z" />
    <glyph glyph-name="periodcentered" unicode="&#xb7;" horiz-adv-x="427" 
d="M269 296q5 -32 -4.5 -49.5t-25.5 -19.5q-7 -1 -18.5 2.5t-23 12.5t-12.5 17q-3 18 -2.5 27.5t7 15t14.5 7.5q38 7 65 -13z" />
    <glyph glyph-name="cedilla" unicode="&#xb8;" 
d="M308 7q46 -5 51 -8q-36 -54 -43 -78q3 -2 50 -17.5t65.5 -34.5t18.5 -41q0 -14 -13 -38t-44.5 -51t-62 -40.5t-57.5 -12.5q-14 -9 -36.5 4t-25.5 28t10 23q1 0 4 -0.5t5.5 -2.5t13.5 -12.5t18 -10.5q19 0 56 17.5t61.5 41.5t24.5 52q0 8 -11.5 15.5t-62.5 20t-66 22.5
q-22 15 -17 39q3 16 61 84z" />
    <glyph glyph-name="uni00B9" unicode="&#xb9;" horiz-adv-x="346" 
d="M248 591q-37 -46 -72.5 -132.5t-40.5 -156.5q0 -7 -4 -10t-13.5 0t-11.5 3q-5 101 89 308q6 14 21 14q10 -1 23 -11t9 -15z" />
    <glyph glyph-name="ordmasculine" unicode="&#xba;" horiz-adv-x="427" 
d="M329 486q0 13 -8 26.5t-22 20.5q-13 -7 -39 -17t-39 -21q-1 -1 -3.5 3t-5.5 2t-18.5 -23.5t-33 -53.5t-17.5 -50q0 -22 12.5 -40.5t34.5 -18.5q13 0 43.5 21.5t52.5 48.5t32.5 52t10.5 50zM331 557q28 -38 32 -57t4 -27q0 -28 -23.5 -65.5t-63 -76t-71.5 -50.5
q-12 -5 -24 -5q-33 0 -57.5 25t-24.5 55q0 23 10.5 59.5t39 86.5t65.5 80t69 30q11 0 28 -16.5t22 -25.5q2 -3 -2.5 -7.5t-3.5 -5.5z" />
    <glyph glyph-name="guillemotright" unicode="&#xbb;" horiz-adv-x="724" 
d="M311 -41q-12 0 -17.5 14t-2.5 26q0 1 4 4t56.5 36t103.5 73t78.5 70.5t41.5 51.5q-14 20 -40 46t-74.5 64t-50.5 40q-3 2 -0.5 10t11.5 16t16 4q14 -9 43 -31.5t80 -68t55 -49.5q6 -3 22.5 -18.5t16.5 -21.5q0 -7 -4 -19t-9 -17q-3 -3 -11.5 -8.5t-29 -17t-25.5 -14.5
q-33 -17 -71.5 -46.5t-107.5 -86.5t-85 -57zM116 -1q-15 0 -25 8.5t-7 29.5q1 5 11.5 13.5t51 31.5t69 39.5t65.5 42t65 47.5q-15 15 -56 51t-63 61.5t-37 50.5q-5 4 2 14.5t21 13t28 -1.5q50 -107 149 -163q8 -3 24 -15.5t16 -18.5q0 -7 -4 -19t-9 -17q-4 -4 -35.5 -10
t-43.5 -12q-14 -7 -40.5 -23t-81.5 -59t-73 -53.5t-27 -10.5z" />
    <glyph glyph-name="onequarter" unicode="&#xbc;" horiz-adv-x="651" 
d="M513 192q2 2 9 10.5t12 7.5q10 -1 15.5 -14t0.5 -29q-8 -23 -40 -93q57 10 67 10q5 0 7.5 -6t-1.5 -15t-10 -10l-78 -15q-20 -52 -25 -88q-3 -19 3.5 -38.5t7.5 -23.5q1 -7 -1.5 -12.5t-9 -3.5t-12.5 11q-30 45 -3 148q-91 -15 -105 -12q-4 0 -6 -3t-6 -3q-8 0 -23 8.5
t-12 18.5q9 26 25 52t53.5 73.5t42.5 68.5q2 4 17 3t27 -6q3 -1 4 -15t-1 -22q-2 -2 -39 -40t-55 -60.5t-27 -39.5q-3 -5 4.5 -5h9.5l101 17q16 50 48 126zM36 140q54 23 182.5 92.5t177.5 94t70 33.5q3 1 15.5 7t21 9t11.5 0q4 -5 3.5 -14.5t-5.5 -11.5q-51 -18 -127 -60
t-175 -103t-116 -71q-11 -5 -29.5 -5t-29.5 7q-5 1 -4.5 5.5t3 10t2.5 6.5zM141 264q-4 8 4.5 42.5t41.5 131.5t44 138q4 15 17 18t25 -5t12 -14q-2 -35 -45.5 -122.5t-54.5 -120t-15 -50.5q-2 -9 -4.5 -14.5t-6.5 -6.5t-10.5 1t-7.5 2z" />
    <glyph glyph-name="onehalf" unicode="&#xbd;" horiz-adv-x="589" 
d="M105 328q-3 6 2 28t41.5 116t48.5 139q3 12 14 17t26.5 -3t13.5 -15q-9 -37 -61.5 -139t-54.5 -110q-4 -15 -11 -25.5t-19 -7.5zM54 123q-7 20 23 53q25 28 88.5 74.5t150 88.5t168.5 63q6 2 12.5 0.5t9 -6.5t-1.5 -9q-32 -5 -91 -31t-123 -63.5t-115 -77t-75 -72.5
q-10 -16 -23 -22t-23 2zM269 77q-8 -2 -17 0.5t-9.5 11t5.5 18.5q12 22 76 48t103 28q28 1 42.5 -10.5t17.5 -30.5t-3 -34q-4 -9 -46 -53t-53 -55.5t-17 -20.5t-3 -9q8 -1 78.5 -4.5t93 -13.5t26.5 -27q0 -8 -6.5 -12.5t-14.5 -1.5q-3 2 -13.5 9.5t-18 9.5t-10.5 2
q-17 1 -85 0.5t-87 3.5t-25 7q-3 1 -4.5 7.5t4 17t16.5 16.5q20 11 63 57.5t57 69.5q8 13 8.5 24t-10.5 14.5t-29 1.5q-42 -6 -79 -27t-60 -47z" />
    <glyph glyph-name="threequarters" unicode="&#xbe;" horiz-adv-x="672" 
d="M516 212q2 2 9 10.5t12 7.5q12 -1 22.5 -11.5t2.5 -23.5q-43 -73 -68 -132q80 10 110 9q9 -1 14 -11.5t2 -16t-9 -4.5q-43 5 -130 -7q-19 -46 -26 -84q-2 -11 -3.5 -21.5t2.5 -34.5q1 -5 -1 -11t-7 -6t-9 8q-19 40 10 144q-46 -7 -105 -20q-26 -6 -51.5 -5.5t-42.5 7.5
q-13 5 -12.5 28t14.5 41q4 14 24.5 44t52.5 66t39 36t14.5 -8t6 -18t-7.5 -17q-58 -66 -73 -87t-23 -37q-5 -10 0 -16.5t20 -5.5l153 22q21 65 60 154zM48 630q14 -1 91.5 9.5t96.5 8.5q12 -1 27.5 -9.5t14.5 -15.5q-2 -16 -16 -37t-68.5 -59.5t-70.5 -57.5q1 -5 10.5 -9.5
t36 -10t43 -9t30.5 -10.5t22.5 -16t8.5 -23q1 -19 -17.5 -40t-58.5 -35.5t-63 -11.5q-14 2 -26 8t-12 10q0 6 5 12t11 5q15 -2 38.5 2.5t46.5 19t31 31.5q0 10 -12 17.5t-55.5 11t-49.5 9.5q-25 4 -42.5 14t-15.5 19q3 15 21 17q49 29 103 71.5t53 59.5q-13 6 -63 0.5
t-57 -4.5q-37 -13 -52 -13q-11 0 -19 6t-5 16.5t13 13.5zM446 414q9 6 18.5 1t9.5 -13.5t-6 -13.5q-39 -37 -174 -122t-179 -95q-12 -6 -22.5 -1t-10.5 11q0 5 5.5 12t16.5 12q37 16 114.5 57.5t141 82.5t86.5 69z" />
    <glyph glyph-name="questiondown" unicode="&#xbf;" horiz-adv-x="660" 
d="M418 348q-5 31 4 48t25 19q6 1 17 -2.5t22 -12t12 -16.5q0 -1 2 -10.5t0.5 -17.5t-6.5 -13t-14 -7q-36 -7 -62 12zM449 -77q-4 1 0.5 5.5t10 7t7.5 2.5q9 0 28.5 -15t19.5 -34t-31 -41t-77.5 -40.5t-100.5 -31t-95 -12.5q-25 0 -52 5.5t-44.5 19.5t-17.5 32
q0 48 39.5 102t121 122.5t98.5 84.5q-3 14 -1 27t7 17q2 2 6.5 2t13.5 -2.5t10 -2.5q5 -1 22.5 -20t17.5 -25q0 -7 -5.5 -15.5t-12.5 -10.5q-43 -18 -97.5 -57t-105 -90t-63.5 -80q-8 -18 -7.5 -35t13 -27.5t41.5 -10.5q79 0 144 24.5t112 65.5q7 6 5.5 18.5t-7.5 14.5z" />
    <glyph glyph-name="Agrave" unicode="&#xc0;" horiz-adv-x="556" 
d="M447 -20q1 -7 -4.5 -15.5t-17.5 -14t-24.5 -1.5t-14.5 26q-7 88 -25 221q-94 -37 -156.5 -45t-108.5 2q-55 -93 -94 -170q-5 -9 -20 -5t-24.5 17t-2.5 23l96 150q-11 15 -14 28t2.5 22t14.5 13l31 -11q108 163 182 267q1 10 7 25t28 44q-10 25 -11.5 44.5t10 27.5t35.5 8
q16 -2 28 -16.5t18 -49t8 -91.5q0 -3 -6.5 -5t-6.5 -5q2 -115 15 -221l60 17q3 2 9.5 -1t10.5 -11t0 -14l-76 -29q19 -138 51 -230zM315 494q-131 -195 -186 -285q43 -8 92 -4t135 31zM269 870q-2 1 -2.5 8t3.5 16.5t10 9.5q9 0 18.5 -7.5t11.5 -15.5q16 -5 52 -67.5
t51.5 -83.5t27.5 -31q3 -7 4 -15t-1 -9q0 -6 -2 -10t-5 -4q-10 0 -23 10q-19 15 -64 73.5t-81 125.5z" />
    <glyph glyph-name="Aacute" unicode="&#xc1;" horiz-adv-x="556" 
d="M447 -20q1 -7 -4.5 -15.5t-17.5 -14t-24.5 -1.5t-14.5 26q-7 88 -25 221q-94 -37 -156.5 -45t-108.5 2q-55 -93 -94 -170q-5 -9 -20 -5t-24.5 17t-2.5 23l96 150q-11 15 -14 28t2.5 22t14.5 13l31 -11q108 163 182 267q1 10 7 25t28 44q-10 25 -11.5 44.5t10 27.5t35.5 8
q16 -2 28 -16.5t18 -49t8 -91.5q0 -3 -6.5 -5t-6.5 -5q2 -115 15 -221l60 17q3 2 9.5 -1t10.5 -11t0 -14l-76 -29q19 -138 51 -230zM315 494q-131 -195 -186 -285q43 -8 92 -4t135 31zM178 679l13 27q5 3 20 13.5t120 87.5t154 102q18 9 27 7q2 -1 5 -12t3 -15
q-16 -8 -27 -24q-25 -13 -71.5 -45.5t-199.5 -152.5q-9 -7 -10.5 -7.5t-3 -0.5h-2.5q-9 0 -14 4t-9 9.5t-5 6.5z" />
    <glyph glyph-name="Acircumflex" unicode="&#xc2;" horiz-adv-x="556" 
d="M447 -20q1 -7 -4.5 -15.5t-17.5 -14t-24.5 -1.5t-14.5 26q-7 88 -25 221q-94 -37 -156.5 -45t-108.5 2q-55 -93 -94 -170q-5 -9 -20 -5t-24.5 17t-2.5 23l96 150q-11 15 -14 28t2.5 22t14.5 13l31 -11q108 163 182 267q1 10 7 25t28 44q-10 25 -11.5 44.5t10 27.5t35.5 8
q16 -2 28 -16.5t18 -49t8 -91.5q0 -3 -6.5 -5t-6.5 -5q2 -115 15 -221l60 17q3 2 9.5 -1t10.5 -11t0 -14l-76 -29q19 -138 51 -230zM315 494q-131 -195 -186 -285q43 -8 92 -4t135 31zM378 839q-35 -12 -118 -72.5t-103 -68.5q-7 -3 -18.5 -0.5t-21.5 15t-9 26.5
q51 23 122.5 65.5t121.5 77.5q4 3 17 23t20 20q13 0 29 -13.5t20 -40.5q0 -15 6.5 -37.5t19.5 -51t33 -65.5t24 -45q-3 -8 -19.5 -9.5t-26.5 5.5q-11 8 -47 70t-50 101z" />
    <glyph glyph-name="Atilde" unicode="&#xc3;" horiz-adv-x="556" 
d="M447 -20q1 -7 -4.5 -15.5t-17.5 -14t-24.5 -1.5t-14.5 26q-7 88 -25 221q-94 -37 -156.5 -45t-108.5 2q-55 -93 -94 -170q-5 -9 -20 -5t-24.5 17t-2.5 23l96 150q-11 15 -14 28t2.5 22t14.5 13l31 -11q108 163 182 267q1 10 7 25t28 44q-10 25 -11.5 44.5t10 27.5t35.5 8
q16 -2 28 -16.5t18 -49t8 -91.5q0 -3 -6.5 -5t-6.5 -5q2 -115 15 -221l60 17q3 2 9.5 -1t10.5 -11t0 -14l-76 -29q19 -138 51 -230zM315 494q-131 -195 -186 -285q43 -8 92 -4t135 31zM443 743q20 -6 44 33t24 63q-4 13 -1.5 25.5t13 18t19.5 5.5t15.5 -14.5t6.5 -38.5
q0 -12 -16 -43.5t-48.5 -70.5t-51.5 -39q-9 0 -19 6t-21 19.5t-38.5 55t-46.5 41.5q-15 0 -31.5 -14t-40.5 -44.5t-32 -33.5q-19 -6 -35.5 -2t-21.5 17q28 37 68.5 72t77.5 57q20 -1 38.5 -10t36 -25.5t36.5 -44.5t24 -33z" />
    <glyph glyph-name="Adieresis" unicode="&#xc4;" horiz-adv-x="556" 
d="M447 -20q1 -7 -4.5 -15.5t-17.5 -14t-24.5 -1.5t-14.5 26q-7 88 -25 221q-94 -37 -156.5 -45t-108.5 2q-55 -93 -94 -170q-5 -9 -20 -5t-24.5 17t-2.5 23l96 150q-11 15 -14 28t2.5 22t14.5 13l31 -11q108 163 182 267q1 10 7 25t28 44q-10 25 -11.5 44.5t10 27.5t35.5 8
q16 -2 28 -16.5t18 -49t8 -91.5q0 -3 -6.5 -5t-6.5 -5q2 -115 15 -221l60 17q3 2 9.5 -1t10.5 -11t0 -14l-76 -29q19 -138 51 -230zM315 494q-131 -195 -186 -285q43 -8 92 -4t135 31zM347 887q-19 -35 -34.5 -84t-25.5 -66q-6 -6 -11 -4.5t-21 19.5q2 15 17 76t13 94
q3 9 14 18t21 9q19 0 27 -62zM500 892q-23 -31 -47.5 -78t-25.5 -48q-8 -8 -18.5 -7.5t-18.5 5.5q5 19 17 56t17 79q22 47 34 47q13 0 26 -15.5t16 -38.5z" />
    <glyph glyph-name="Aring" unicode="&#xc5;" horiz-adv-x="556" 
d="M447 -20q1 -7 -4.5 -15.5t-17.5 -14t-24.5 -1.5t-14.5 26q-7 88 -25 221q-94 -37 -156.5 -45t-108.5 2q-55 -93 -94 -170q-5 -9 -20 -5t-24.5 17t-2.5 23l96 150q-11 15 -14 28t2.5 22t14.5 13l31 -11q108 163 182 267q1 10 7 25t28 44q-10 25 -11.5 44.5t10 27.5t35.5 8
q16 -2 28 -16.5t18 -49t8 -91.5q0 -3 -6.5 -5t-6.5 -5q2 -115 15 -221l60 17q3 2 9.5 -1t10.5 -11t0 -14l-76 -29q19 -138 51 -230zM353 932q15 4 29 -8q11 3 32 -3.5t43.5 -24.5t22.5 -31q0 -33 -23 -67t-55.5 -59.5t-61 -37t-36.5 -3.5q-3 0 -3 -2.5t-11 -2.5
q-14 0 -31.5 12t-26.5 35t-9 50q0 21 16 53t40 56t43 31t31 2zM315 494q-131 -195 -186 -285q43 -8 92 -4t135 31zM433 854q0 11 -10 22t-22 16q-2 -10 -9.5 -20t-15.5 -11t-16.5 4.5t-14.5 5.5q-18 -7 -35 -30.5t-25 -45.5q-9 -24 -7.5 -43.5t13.5 -18.5q21 1 51.5 20
t60.5 52.5t30 48.5z" />
    <glyph glyph-name="AE" unicode="&#xc6;" horiz-adv-x="890" 
d="M859 335q-99 13 -345 -41q-37 -143 -46 -237q45 7 105 6q29 2 73 -0.5t97.5 -16.5t91.5 -35t38 -29q0 -10 -8 -20t-17 -10q-7 0 -11 11.5t-9 14.5q-33 20 -118.5 34t-144.5 14q-55 0 -100 -10v-33q0 -3 4.5 -6.5t3.5 -7.5q-6 -25 -13.5 -36.5t-17.5 -10.5
q-8 1 -14.5 15.5t-5.5 26.5l5 41q-48 -17 -63 -46q-9 2 -27 12t-18 16q0 2 -2 5.5t15 16.5q33 26 101 42l38 233q-145 -33 -251 -65q-18 -5 -29 -5q-40 -42 -92.5 -99.5t-88.5 -103.5q-4 -5 -17 -9.5t-22 -4.5t-16.5 10t-7.5 21q0 10 44.5 64t50.5 57q3 1 7 0t7 0
q35 15 103 78l-1 6q0 18 36 27q46 44 143 145.5t124 128.5q2 2 5 0t12 1q8 3 21.5 13.5t17.5 10.5q6 1 25 -7t27 -17q117 35 191 35q34 0 62 -9.5t42 -28t14 -29.5q0 -21 -7 -34.5t-22 -13.5q-3 0 -4.5 2.5t-2 6.5t-0.5 35q0 12 -24 22t-62 10q-31 0 -78 -9.5t-111 -35.5
l-44 -161q234 46 285 40q17 5 39 3t39.5 -12t17.5 -18q0 -10 -5 -19.5t-12 -9.5q-6 0 -15.5 13t-12.5 13zM245 270l231 46l23 139q-38 -19 -84 -49q-8 -5 -19 6q-60 -51 -151 -142z" />
    <glyph glyph-name="Ccedilla" unicode="&#xc7;" horiz-adv-x="555" 
d="M397 566q-46 0 -91.5 -19.5t-83.5 -53t-71.5 -82.5t-50 -103.5t-16.5 -93.5q0 -87 37 -131.5t100 -44.5q106 0 219 84q5 2 14.5 -2t11.5 -17t-13 -25q-27 -22 -80.5 -46.5t-114.5 -33.5q-29 -46 -34 -65q3 -2 50 -17.5t65.5 -34.5t18.5 -41q0 -14 -13 -38t-44.5 -51
t-62 -40.5t-57.5 -12.5q-14 -9 -36.5 4t-25.5 28t10 23q1 0 4 -0.5t5.5 -2.5t13.5 -12.5t18 -10.5q19 0 56 17.5t61.5 41.5t24.5 52q0 8 -11.5 15.5t-62.5 20t-66 22.5q-22 15 -17 39q3 13 40 59q-31 2 -62 15t-58 43.5t-38 70t-11 68.5q0 42 12 96t42.5 108t76.5 102.5
t104.5 79.5t101.5 31q34 0 69 -12.5t60 -43t25 -61.5q0 -37 -8.5 -62.5t-23 -34t-34.5 2.5q13 79 0 117.5t-54 51.5z" />
    <glyph glyph-name="Egrave" unicode="&#xc8;" horiz-adv-x="597" 
d="M40 510q-6 5 -6 18t10.5 20.5t24.5 8.5q33 3 125 3l10 35q19 12 31.5 6.5t17 -19t4.5 -24.5q60 -3 155 -12.5t152 -16.5q12 -1 7 -12q-10 -17 -20 -16q-122 10 -305 12q-7 -12 -27 -42t-27 -44q-37 -69 -54 -134q65 -7 165.5 6t130.5 41q14 1 23 -3.5t10.5 -16
t-8.5 -22.5q-15 -16 -69 -29.5t-131.5 -19t-129.5 7.5q-9 -43 -7 -94q2 -41 18.5 -73t44 -44.5t58.5 -12.5q37 0 93 18.5t123 61t102 81.5q8 -1 14 -9.5t6 -14.5q0 -14 -21 -35q-44 -44 -108.5 -80t-122 -51t-100.5 -15q-68 0 -111 48.5t-43 137.5q0 35 9.5 77.5t25.5 88.5
t40 107t26 65q-83 0 -136 -3zM285 834q-2 1 -2.5 8t3.5 16.5t10 9.5q9 0 18.5 -7.5t11.5 -15.5q16 -5 52 -67.5t51.5 -83.5t27.5 -31q3 -7 4 -15t-1 -9q0 -6 -2 -10t-5 -4q-10 0 -23 10q-19 15 -64 73.5t-81 125.5z" />
    <glyph glyph-name="Eacute" unicode="&#xc9;" horiz-adv-x="597" 
d="M40 510q-6 5 -6 18t10.5 20.5t24.5 8.5q33 3 125 3l10 35q19 12 31.5 6.5t17 -19t4.5 -24.5q60 -3 155 -12.5t152 -16.5q12 -1 7 -12q-10 -17 -20 -16q-122 10 -305 12q-7 -12 -27 -42t-27 -44q-37 -69 -54 -134q65 -7 165.5 6t130.5 41q14 1 23 -3.5t10.5 -16
t-8.5 -22.5q-15 -16 -69 -29.5t-131.5 -19t-129.5 7.5q-9 -43 -7 -94q2 -41 18.5 -73t44 -44.5t58.5 -12.5q37 0 93 18.5t123 61t102 81.5q8 -1 14 -9.5t6 -14.5q0 -14 -21 -35q-44 -44 -108.5 -80t-122 -51t-100.5 -15q-68 0 -111 48.5t-43 137.5q0 35 9.5 77.5t25.5 88.5
t40 107t26 65q-83 0 -136 -3zM196 636l13 27q5 3 20 13.5t120 87.5t154 102q18 9 27 7q2 -1 5 -12t3 -15q-16 -8 -27 -24q-25 -13 -71.5 -45.5t-199.5 -152.5q-9 -7 -10.5 -7.5t-3 -0.5h-2.5q-9 0 -14 4t-9 9.5t-5 6.5z" />
    <glyph glyph-name="Ecircumflex" unicode="&#xca;" horiz-adv-x="597" 
d="M40 510q-6 5 -6 18t10.5 20.5t24.5 8.5q33 3 125 3l10 35q19 12 31.5 6.5t17 -19t4.5 -24.5q60 -3 155 -12.5t152 -16.5q12 -1 7 -12q-10 -17 -20 -16q-122 10 -305 12q-7 -12 -27 -42t-27 -44q-37 -69 -54 -134q65 -7 165.5 6t130.5 41q14 1 23 -3.5t10.5 -16
t-8.5 -22.5q-15 -16 -69 -29.5t-131.5 -19t-129.5 7.5q-9 -43 -7 -94q2 -41 18.5 -73t44 -44.5t58.5 -12.5q37 0 93 18.5t123 61t102 81.5q8 -1 14 -9.5t6 -14.5q0 -14 -21 -35q-44 -44 -108.5 -80t-122 -51t-100.5 -15q-68 0 -111 48.5t-43 137.5q0 35 9.5 77.5t25.5 88.5
t40 107t26 65q-83 0 -136 -3zM396 796q-35 -12 -118 -72.5t-103 -68.5q-7 -3 -18.5 -0.5t-21.5 15t-9 26.5q51 23 122.5 65.5t121.5 77.5q4 3 17 23t20 20q13 0 29 -13.5t20 -40.5q0 -15 6.5 -37.5t19.5 -51t33 -65.5t24 -45q-3 -8 -19.5 -9.5t-26.5 5.5q-11 8 -47 70
t-50 101z" />
    <glyph glyph-name="Edieresis" unicode="&#xcb;" horiz-adv-x="597" 
d="M40 510q-6 5 -6 18t10.5 20.5t24.5 8.5q33 3 125 3l10 35q19 12 31.5 6.5t17 -19t4.5 -24.5q60 -3 155 -12.5t152 -16.5q12 -1 7 -12q-10 -17 -20 -16q-122 10 -305 12q-7 -12 -27 -42t-27 -44q-37 -69 -54 -134q65 -7 165.5 6t130.5 41q14 1 23 -3.5t10.5 -16
t-8.5 -22.5q-15 -16 -69 -29.5t-131.5 -19t-129.5 7.5q-9 -43 -7 -94q2 -41 18.5 -73t44 -44.5t58.5 -12.5q37 0 93 18.5t123 61t102 81.5q8 -1 14 -9.5t6 -14.5q0 -14 -21 -35q-44 -44 -108.5 -80t-122 -51t-100.5 -15q-68 0 -111 48.5t-43 137.5q0 35 9.5 77.5t25.5 88.5
t40 107t26 65q-83 0 -136 -3zM355 817q-19 -35 -34.5 -84t-25.5 -66q-6 -6 -11 -4.5t-21 19.5q2 15 17 76t13 94q3 9 14 18t21 9q19 0 27 -62zM508 822q-23 -31 -47.5 -78t-25.5 -48q-8 -8 -18.5 -7.5t-18.5 5.5q5 19 17 56t17 79q22 47 34 47q13 0 26 -15.5t16 -38.5z" />
    <glyph glyph-name="Igrave" unicode="&#xcc;" horiz-adv-x="300" 
d="M17 -19q8 50 27 124t48 160t61.5 179t42.5 124q1 5 1.5 22.5t5.5 23.5t13 8q14 3 32 -6.5t25 -24.5q9 -20 -28 -89q-6 -11 -19 -21t-17 -17q-38 -84 -76.5 -213.5t-55.5 -226.5q-7 -39 -12.5 -49.5t-13.5 -11.5q-19 -1 -34 18zM178 881q-2 1 -2.5 8t3.5 16.5t10 9.5
q9 0 18.5 -7.5t11.5 -15.5q16 -5 52 -67.5t51.5 -83.5t27.5 -31q3 -7 4 -15t-1 -9q0 -6 -2 -10t-5 -4q-10 0 -23 10q-19 15 -64 73.5t-81 125.5z" />
    <glyph glyph-name="Iacute" unicode="&#xcd;" horiz-adv-x="300" 
d="M17 -19q8 50 27 124t48 160t61.5 179t42.5 124q1 5 1.5 22.5t5.5 23.5t13 8q14 3 32 -6.5t25 -24.5q9 -20 -28 -89q-6 -11 -19 -21t-17 -17q-38 -84 -76.5 -213.5t-55.5 -226.5q-7 -39 -12.5 -49.5t-13.5 -11.5q-19 -1 -34 18zM113 680l13 27q5 3 20 13.5t120 87.5
t154 102q18 9 27 7q2 -1 5 -12t3 -15q-16 -8 -27 -24q-25 -13 -71.5 -45.5t-199.5 -152.5q-9 -7 -10.5 -7.5t-3 -0.5h-2.5q-9 0 -14 4t-9 9.5t-5 6.5z" />
    <glyph glyph-name="Icircumflex" unicode="&#xce;" horiz-adv-x="300" 
d="M17 -19q8 50 27 124t48 160t61.5 179t42.5 124q1 5 1.5 22.5t5.5 23.5t13 8q14 3 32 -6.5t25 -24.5q9 -20 -28 -89q-6 -11 -19 -21t-17 -17q-38 -84 -76.5 -213.5t-55.5 -226.5q-7 -39 -12.5 -49.5t-13.5 -11.5q-19 -1 -34 18zM294 789q-35 -12 -118 -72.5t-103 -68.5
q-7 -3 -18.5 -0.5t-21.5 15t-9 26.5q51 23 122.5 65.5t121.5 77.5q4 3 17 23t20 20q13 0 29 -13.5t20 -40.5q0 -15 6.5 -37.5t19.5 -51t33 -65.5t24 -45q-3 -8 -19.5 -9.5t-26.5 5.5q-11 8 -47 70t-50 101z" />
    <glyph glyph-name="Idieresis" unicode="&#xcf;" horiz-adv-x="300" 
d="M17 -19q8 50 27 124t48 160t61.5 179t42.5 124q1 5 1.5 22.5t5.5 23.5t13 8q14 3 32 -6.5t25 -24.5q9 -20 -28 -89q-6 -11 -19 -21t-17 -17q-38 -84 -76.5 -213.5t-55.5 -226.5q-7 -39 -12.5 -49.5t-13.5 -11.5q-19 -1 -34 18zM395 844q-23 -31 -47.5 -78t-25.5 -48
q-8 -8 -18.5 -7.5t-18.5 5.5q5 19 17 56t17 79q22 47 34 47q13 0 26 -15.5t16 -38.5zM242 839q-19 -35 -34.5 -84t-25.5 -66q-6 -6 -11 -4.5t-21 19.5q2 15 17 76t13 94q3 9 14 18t21 9q19 0 27 -62z" />
    <glyph glyph-name="Eth" unicode="&#xd0;" horiz-adv-x="574" 
d="M215 617q6 8 17 12t22 0q8 -3 15.5 -16.5t9 -40t-2.5 -53.5q43 -33 94 -84.5t85.5 -119.5t34.5 -138q0 -95 -59.5 -150t-158.5 -55q-48 0 -91 11t-65 24l-3 -32q9 -12 -3 -24.5t-24 -12.5q-8 0 -18 10.5t-12 26.5t2 31l65 221l-109 -5q-21 1 -34 4.5t-23 16.5
q-7 9 -3 16.5t14 11.5q34 -16 164 -14q41 149 63 255q-83 50 -167 84q-17 7 -24.5 19t-2 25.5t11.5 15.5q43 -13 95 -37t98 -52zM272 222q-62 4 -112 5q-27 -101 -36 -166q20 -18 64 -32t109 -14q64 0 107 44t43 122q0 54 -24.5 105.5t-70 100t-106.5 91.5l-9 -14
q0 -1 -0.5 -2t-14 -37.5t-28.5 -84t-25 -82.5l97 5q20 1 49 -2q5 -1 15.5 -9.5t9.5 -14.5q0 -7 -6.5 -16t-12.5 -8q-31 9 -49 9z" />
    <glyph glyph-name="Ntilde" unicode="&#xd1;" horiz-adv-x="674" 
d="M154 376q-1 -4 -5.5 -18.5t-44 -135t-36.5 -139.5v-24t5 -36t5 -20q1 -7 -3 -10.5t-14 -3.5t-11 -1q-8 -16 -41 -16q-6 0 -9.5 13.5t-1 42.5t9.5 53q1 3 7 4t7 3q9 32 27.5 95t45 151.5t27.5 90.5q6 21 3 37q0 1 -0.5 2.5t-6.5 26t-0.5 42t20.5 22.5q1 30 11.5 45.5
t23.5 15.5q9 0 17 -20q11 0 24 -7.5t14 -13.5q2 -31 -17 -77q-3 -26 8 -68t38.5 -95.5t69 -107.5t82.5 -82q21 -14 31.5 -11.5t14.5 22.5q8 43 30 120.5t57.5 189.5t35.5 114q-5 12 -3.5 36.5t5.5 28.5q5 5 15 12t15 7q6 0 23.5 -11t17.5 -16q0 -8 -5.5 -44.5t-8.5 -40.5
q-5 -6 -28 -13q-1 -4 -22.5 -76.5t-44 -166.5t-31 -156.5t-5.5 -95.5q0 -5 5 -10.5t5 -9.5q-1 -6 -8.5 -9t-15.5 -1q-10 -4 -22 0t-22 20.5t-12 34.5q-75 55 -145.5 134t-113.5 160q-8 15 -14.5 18t-8.5 -5zM459 720q20 -6 44 33t24 63q-4 13 -1.5 25.5t13 18t19.5 5.5
t15.5 -14.5t6.5 -38.5q0 -12 -16 -43.5t-48.5 -70.5t-51.5 -39q-9 0 -19 6t-21 19.5t-38.5 55t-46.5 41.5q-15 0 -31.5 -14t-40.5 -44.5t-32 -33.5q-19 -6 -35.5 -2t-21.5 17q28 37 68.5 72t77.5 57q20 -1 38.5 -10t36 -25.5t36.5 -44.5t24 -33z" />
    <glyph glyph-name="Ograve" unicode="&#xd2;" horiz-adv-x="497" 
d="M394 454l-1 -14q56 -46 56 -102q0 -34 -26 -93.5t-70 -119.5t-101 -100.5t-115 -40.5q-29 0 -58 22.5t-48 65t-19 104.5q0 45 21.5 114.5t58.5 137.5t83 112.5t91 44.5q23 0 55.5 -20t52.5 -48.5t20 -62.5zM312 449q-10 3 -10.5 12.5t9.5 12.5t21 0q-4 15 -14.5 30
t-24.5 21.5t-26 6.5q-28 0 -55 -21.5t-40 -46.5q-17 -49 -40 -78.5t-34 -46.5q-8 -14 -19.5 -48.5t-17.5 -71t-6 -63.5q0 -54 27.5 -93t70.5 -39q25 0 61 21.5t81.5 73.5t73 111t27.5 96q0 30 -20 62q-4 -10 -18.5 -36t-38.5 -54q-3 1 -10 5.5t-9 15.5q-2 9 10 31.5t17 44
t6 42.5q-12 9 -21 12zM234 857q-2 1 -2.5 8t3.5 16.5t10 9.5q9 0 18.5 -7.5t11.5 -15.5q16 -5 52 -67.5t51.5 -83.5t27.5 -31q3 -7 4 -15t-1 -9q0 -6 -2 -10t-5 -4q-10 0 -23 10q-19 15 -64 73.5t-81 125.5z" />
    <glyph glyph-name="Oacute" unicode="&#xd3;" horiz-adv-x="497" 
d="M394 454l-1 -14q56 -46 56 -102q0 -34 -26 -93.5t-70 -119.5t-101 -100.5t-115 -40.5q-29 0 -58 22.5t-48 65t-19 104.5q0 45 21.5 114.5t58.5 137.5t83 112.5t91 44.5q23 0 55.5 -20t52.5 -48.5t20 -62.5zM312 449q-10 3 -10.5 12.5t9.5 12.5t21 0q-4 15 -14.5 30
t-24.5 21.5t-26 6.5q-28 0 -55 -21.5t-40 -46.5q-17 -49 -40 -78.5t-34 -46.5q-8 -14 -19.5 -48.5t-17.5 -71t-6 -63.5q0 -54 27.5 -93t70.5 -39q25 0 61 21.5t81.5 73.5t73 111t27.5 96q0 30 -20 62q-4 -10 -18.5 -36t-38.5 -54q-3 1 -10 5.5t-9 15.5q-2 9 10 31.5t17 44
t6 42.5q-12 9 -21 12zM207 670l13 27q5 3 20 13.5t120 87.5t154 102q18 9 27 7q2 -1 5 -12t3 -15q-16 -8 -27 -24q-25 -13 -71.5 -45.5t-199.5 -152.5q-9 -7 -10.5 -7.5t-3 -0.5h-2.5q-9 0 -14 4t-9 9.5t-5 6.5z" />
    <glyph glyph-name="Ocircumflex" unicode="&#xd4;" horiz-adv-x="497" 
d="M394 454l-1 -14q56 -46 56 -102q0 -34 -26 -93.5t-70 -119.5t-101 -100.5t-115 -40.5q-29 0 -58 22.5t-48 65t-19 104.5q0 45 21.5 114.5t58.5 137.5t83 112.5t91 44.5q23 0 55.5 -20t52.5 -48.5t20 -62.5zM312 449q-10 3 -10.5 12.5t9.5 12.5t21 0q-4 15 -14.5 30
t-24.5 21.5t-26 6.5q-28 0 -55 -21.5t-40 -46.5q-17 -49 -40 -78.5t-34 -46.5q-8 -14 -19.5 -48.5t-17.5 -71t-6 -63.5q0 -54 27.5 -93t70.5 -39q25 0 61 21.5t81.5 73.5t73 111t27.5 96q0 30 -20 62q-4 -10 -18.5 -36t-38.5 -54q-3 1 -10 5.5t-9 15.5q-2 9 10 31.5t17 44
t6 42.5q-12 9 -21 12zM363 777q-35 -12 -118 -72.5t-103 -68.5q-7 -3 -18.5 -0.5t-21.5 15t-9 26.5q51 23 122.5 65.5t121.5 77.5q4 3 17 23t20 20q13 0 29 -13.5t20 -40.5q0 -15 6.5 -37.5t19.5 -51t33 -65.5t24 -45q-3 -8 -19.5 -9.5t-26.5 5.5q-11 8 -47 70t-50 101z" />
    <glyph glyph-name="Otilde" unicode="&#xd5;" horiz-adv-x="497" 
d="M394 454l-1 -14q56 -46 56 -102q0 -34 -26 -93.5t-70 -119.5t-101 -100.5t-115 -40.5q-29 0 -58 22.5t-48 65t-19 104.5q0 45 21.5 114.5t58.5 137.5t83 112.5t91 44.5q23 0 55.5 -20t52.5 -48.5t20 -62.5zM312 449q-10 3 -10.5 12.5t9.5 12.5t21 0q-4 15 -14.5 30
t-24.5 21.5t-26 6.5q-28 0 -55 -21.5t-40 -46.5q-17 -49 -40 -78.5t-34 -46.5q-8 -14 -19.5 -48.5t-17.5 -71t-6 -63.5q0 -54 27.5 -93t70.5 -39q25 0 61 21.5t81.5 73.5t73 111t27.5 96q0 30 -20 62q-4 -10 -18.5 -36t-38.5 -54q-3 1 -10 5.5t-9 15.5q-2 9 10 31.5t17 44
t6 42.5q-12 9 -21 12zM385 684q20 -6 44 33t24 63q-4 13 -1.5 25.5t13 18t19.5 5.5t15.5 -14.5t6.5 -38.5q0 -12 -16 -43.5t-48.5 -70.5t-51.5 -39q-9 0 -19 6t-21 19.5t-38.5 55t-46.5 41.5q-15 0 -31.5 -14t-40.5 -44.5t-32 -33.5q-19 -6 -35.5 -2t-21.5 17q28 37 68.5 72
t77.5 57q20 -1 38.5 -10t36 -25.5t36.5 -44.5t24 -33z" />
    <glyph glyph-name="Odieresis" unicode="&#xd6;" horiz-adv-x="497" 
d="M394 454l-1 -14q56 -46 56 -102q0 -34 -26 -93.5t-70 -119.5t-101 -100.5t-115 -40.5q-29 0 -58 22.5t-48 65t-19 104.5q0 45 21.5 114.5t58.5 137.5t83 112.5t91 44.5q23 0 55.5 -20t52.5 -48.5t20 -62.5zM312 449q-10 3 -10.5 12.5t9.5 12.5t21 0q-4 15 -14.5 30
t-24.5 21.5t-26 6.5q-28 0 -55 -21.5t-40 -46.5q-17 -49 -40 -78.5t-34 -46.5q-8 -14 -19.5 -48.5t-17.5 -71t-6 -63.5q0 -54 27.5 -93t70.5 -39q25 0 61 21.5t81.5 73.5t73 111t27.5 96q0 30 -20 62q-4 -10 -18.5 -36t-38.5 -54q-3 1 -10 5.5t-9 15.5q-2 9 10 31.5t17 44
t6 42.5q-12 9 -21 12zM300 805q-19 -35 -34.5 -84t-25.5 -66q-6 -6 -11 -4.5t-21 19.5q2 15 17 76t13 94q3 9 14 18t21 9q19 0 27 -62zM453 810q-23 -31 -47.5 -78t-25.5 -48q-8 -8 -18.5 -7.5t-18.5 5.5q5 19 17 56t17 79q22 47 34 47q13 0 26 -15.5t16 -38.5z" />
    <glyph glyph-name="multiply" unicode="&#xd7;" 
d="M537 372q-29 7 -85 -25.5t-119 -85.5q31 -25 90.5 -77t76.5 -64q6 -8 3.5 -16.5t-16.5 -11.5t-23 4q-19 14 -77.5 63.5t-87.5 72.5q-81 -72 -118 -121q-18 -24 -6 -41q-6 -10 -14.5 -16.5t-15.5 -7.5q-11 -1 -23 5t-13 19q-1 28 43 78.5t114 108.5q-57 44 -88 55
q-16 7 -18 19t7.5 18.5t20 5t17.5 -4.5q34 -16 97 -65q41 32 100 74t102 65q10 5 24 2.5t29.5 -15.5t23.5 -26q9 -15 8 -24.5t-11 -5.5z" />
    <glyph glyph-name="Oslash" unicode="&#xd8;" horiz-adv-x="497" 
d="M387 627q5 13 28 13q10 0 27 -17.5t13 -29.5q-6 -18 -32.5 -42.5t-48.5 -35.5q20 -30 20 -61l-1 -14q56 -46 56 -102q0 -34 -26 -93.5t-70 -119.5t-101 -100.5t-115 -40.5q-17 0 -41 11l-2 -9q-3 -9 6.5 -25t9.5 -20q0 -9 -15 -36t-19 -27q-8 0 -25 -6.5t-22 -6.5
q-10 0 -13 2.5t-2 11t6 27.5q12 41 45 113q-23 23 -38 63t-15 94q0 45 21.5 114.5t58.5 137.5t83 112.5t91 44.5q16 0 40.5 -12t42.5 -28q25 49 38 82zM55 156q0 -26 8 -53t21 -44q43 86 124 230t94 168q-2 4 0.5 10t8.5 8l12 21q-8 14 -22.5 25t-33.5 11q-28 0 -55 -21.5
t-40 -46.5q-17 -49 -40 -78.5t-34 -46.5q-8 -14 -19.5 -48.5t-17.5 -71t-6 -63.5zM333 437l-4 3q-133 -237 -166.5 -301.5t-50.5 -103.5q19 -11 41 -11q25 0 61 21.5t81.5 73.5t73 111t27.5 96q0 30 -20 62q-4 -10 -18.5 -36t-38.5 -54q-3 1 -10 5.5t-9 15.5q-2 9 10 31.5
t17 44t6 42.5z" />
    <glyph glyph-name="Ugrave" unicode="&#xd9;" horiz-adv-x="571" 
d="M138 419q-21 -55 -44 -146t-23 -134q0 -82 30.5 -97.5t82.5 35.5q42 40 98 109t95 131.5t55 106.5q1 4 10 48.5t15 47.5q12 6 28.5 6t31 -10.5t14.5 -23.5q0 -7 -3 -22.5t-11 -44.5t-10 -36q-1 -3 -4.5 -8t-10.5 -4q-22 -54 -38.5 -122.5t-16.5 -113.5q0 -34 6 -57
t14 -34t13.5 -16.5t11 -9t6.5 -4.5q3 -2 2 -10t-11 -17t-25 -9q-25 0 -42.5 36.5t-22 100.5t11.5 135q4 19 0 22t-13 -12q-24 -40 -88 -122.5t-106 -112.5q-22 -28 -53 -39.5t-59.5 -0.5t-45 47.5t-11.5 96.5q5 58 23 128t41 143.5t29 94.5q5 20 9.5 54.5t4.5 46.5
q0 8 8.5 16t21.5 8q15 0 31 -12t16 -26q0 -3 -2 -16.5t-14 -61.5l-15 -60q-3 -15 -15 -22.5t-25 -8.5zM266 838q-2 1 -2.5 8t3.5 16.5t10 9.5q9 0 18.5 -7.5t11.5 -15.5q16 -5 52 -67.5t51.5 -83.5t27.5 -31q3 -7 4 -15t-1 -9q0 -6 -2 -10t-5 -4q-10 0 -23 10
q-19 15 -64 73.5t-81 125.5z" />
    <glyph glyph-name="Uacute" unicode="&#xda;" horiz-adv-x="571" 
d="M138 419q-21 -55 -44 -146t-23 -134q0 -82 30.5 -97.5t82.5 35.5q42 40 98 109t95 131.5t55 106.5q1 4 10 48.5t15 47.5q12 6 28.5 6t31 -10.5t14.5 -23.5q0 -7 -3 -22.5t-11 -44.5t-10 -36q-1 -3 -4.5 -8t-10.5 -4q-22 -54 -38.5 -122.5t-16.5 -113.5q0 -34 6 -57
t14 -34t13.5 -16.5t11 -9t6.5 -4.5q3 -2 2 -10t-11 -17t-25 -9q-25 0 -42.5 36.5t-22 100.5t11.5 135q4 19 0 22t-13 -12q-24 -40 -88 -122.5t-106 -112.5q-22 -28 -53 -39.5t-59.5 -0.5t-45 47.5t-11.5 96.5q5 58 23 128t41 143.5t29 94.5q5 20 9.5 54.5t4.5 46.5
q0 8 8.5 16t21.5 8q15 0 31 -12t16 -26q0 -3 -2 -16.5t-14 -61.5l-15 -60q-3 -15 -15 -22.5t-25 -8.5zM215 681l13 27q5 3 20 13.5t120 87.5t154 102q18 9 27 7q2 -1 5 -12t3 -15q-16 -8 -27 -24q-25 -13 -71.5 -45.5t-199.5 -152.5q-9 -7 -10.5 -7.5t-3 -0.5h-2.5
q-9 0 -14 4t-9 9.5t-5 6.5z" />
    <glyph glyph-name="Ucircumflex" unicode="&#xdb;" horiz-adv-x="571" 
d="M138 419q-21 -55 -44 -146t-23 -134q0 -82 30.5 -97.5t82.5 35.5q42 40 98 109t95 131.5t55 106.5q1 4 10 48.5t15 47.5q12 6 28.5 6t31 -10.5t14.5 -23.5q0 -7 -3 -22.5t-11 -44.5t-10 -36q-1 -3 -4.5 -8t-10.5 -4q-22 -54 -38.5 -122.5t-16.5 -113.5q0 -34 6 -57
t14 -34t13.5 -16.5t11 -9t6.5 -4.5q3 -2 2 -10t-11 -17t-25 -9q-25 0 -42.5 36.5t-22 100.5t11.5 135q4 19 0 22t-13 -12q-24 -40 -88 -122.5t-106 -112.5q-22 -28 -53 -39.5t-59.5 -0.5t-45 47.5t-11.5 96.5q5 58 23 128t41 143.5t29 94.5q5 20 9.5 54.5t4.5 46.5
q0 8 8.5 16t21.5 8q15 0 31 -12t16 -26q0 -3 -2 -16.5t-14 -61.5l-15 -60q-3 -15 -15 -22.5t-25 -8.5zM414 810q-35 -12 -118 -72.5t-103 -68.5q-7 -3 -18.5 -0.5t-21.5 15t-9 26.5q51 23 122.5 65.5t121.5 77.5q4 3 17 23t20 20q13 0 29 -13.5t20 -40.5q0 -15 6.5 -37.5
t19.5 -51t33 -65.5t24 -45q-3 -8 -19.5 -9.5t-26.5 5.5q-11 8 -47 70t-50 101z" />
    <glyph glyph-name="Udieresis" unicode="&#xdc;" horiz-adv-x="571" 
d="M138 419q-21 -55 -44 -146t-23 -134q0 -82 30.5 -97.5t82.5 35.5q42 40 98 109t95 131.5t55 106.5q1 4 10 48.5t15 47.5q12 6 28.5 6t31 -10.5t14.5 -23.5q0 -7 -3 -22.5t-11 -44.5t-10 -36q-1 -3 -4.5 -8t-10.5 -4q-22 -54 -38.5 -122.5t-16.5 -113.5q0 -34 6 -57
t14 -34t13.5 -16.5t11 -9t6.5 -4.5q3 -2 2 -10t-11 -17t-25 -9q-25 0 -42.5 36.5t-22 100.5t11.5 135q4 19 0 22t-13 -12q-24 -40 -88 -122.5t-106 -112.5q-22 -28 -53 -39.5t-59.5 -0.5t-45 47.5t-11.5 96.5q5 58 23 128t41 143.5t29 94.5q5 20 9.5 54.5t4.5 46.5
q0 8 8.5 16t21.5 8q15 0 31 -12t16 -26q0 -3 -2 -16.5t-14 -61.5l-15 -60q-3 -15 -15 -22.5t-25 -8.5zM510 828q-23 -31 -47.5 -78t-25.5 -48q-8 -8 -18.5 -7.5t-18.5 5.5q5 19 17 56t17 79q22 47 34 47q13 0 26 -15.5t16 -38.5zM357 823q-19 -35 -34.5 -84t-25.5 -66
q-6 -6 -11 -4.5t-21 19.5q2 15 17 76t13 94q3 9 14 18t21 9q19 0 27 -62z" />
    <glyph glyph-name="Yacute" unicode="&#xdd;" horiz-adv-x="575" 
d="M181 660q0 6 7.5 13.5t13.5 7.5q3 0 15 -5t22.5 -16t6.5 -22q-39 -94 -66 -116q-4 -3 -11 -0.5t-8 2.5q-46 -92 -61 -178q-19 -107 44 -55q40 33 125 113.5t133 122t87 69.5q8 6 15 1t9 -5q18 -2 29 -17t8.5 -43.5t-11.5 -53.5q-2 -5 -10.5 -6t-12.5 -9
q-10 -25 -29.5 -64.5t-67.5 -123.5t-69 -122t-38 -72.5t-28.5 -65t-13.5 -52.5q-1 -13 6.5 -18.5t23 -5.5t15.5 -2q0 -14 -15.5 -25.5t-33.5 -11.5q-22 0 -38 24t2 72q21 55 83.5 171t82.5 155.5t32.5 67.5t25 60t18.5 63q5 25 -16 10q-24 -17 -63 -50.5t-125.5 -117
t-109.5 -100.5q-17 -13 -37.5 -22t-38 -7t-26.5 14q-18 25 -1 103q9 39 23.5 82t52 117.5t50.5 117.5zM322 679l13 27q5 3 20 13.5t120 87.5t154 102q18 9 27 7q2 -1 5 -12t3 -15q-16 -8 -27 -24q-25 -13 -71.5 -45.5t-199.5 -152.5q-9 -7 -10.5 -7.5t-3 -0.5h-2.5
q-9 0 -14 4t-9 9.5t-5 6.5z" />
    <glyph glyph-name="Thorn" unicode="&#xde;" horiz-adv-x="547" 
d="M102 521q-13 -6 -22 -8t-21 3q-9 4 -16 13.5t-5.5 21t11.5 13.5q48 8 106 7l39 -3l20 79q-6 17 -6 33t7.5 24t14.5 7q5 -1 14 -7t17.5 -17t9.5 -17q1 -16 -14 -21q-14 -45 -23 -87q34 -7 72 -22.5t68.5 -36.5t45 -34t25.5 -23.5t12 -11.5q12 -12 20.5 -34.5t8 -49.5
t-5.5 -36q-31 -48 -78.5 -76t-106.5 -37t-120 5q-12 -122 -9 -189q1 -17 8.5 -24.5t8.5 -9.5q2 -6 -8 -16.5t-20.5 -13t-17.5 0.5q-4 2 -7.5 9.5t-3.5 43.5q0 102 15.5 245.5t42.5 269.5q-36 4 -82 -1zM224 517q-29 -135 -44 -269q18 -9 45.5 -14t61 0.5t68 22t60 44.5
t25.5 55t-25 58t-74.5 60.5t-116.5 42.5z" />
    <glyph glyph-name="germandbls" unicode="&#xdf;" horiz-adv-x="495" 
d="M-46 -384q-17 -9 -37 -11q-11 -1 -21.5 10.5t-7.5 31.5q13 80 45 182t84.5 235t127.5 285t134.5 244.5t80.5 92.5q24 0 31 -25t-10 -77q-2 -40 -45.5 -132.5t-88.5 -166.5q-4 -7 -1 -15t12 -11q59 -23 82.5 -56t23.5 -79q0 -13 -4.5 -32t-29.5 -53q-5 -7 -3.5 -12
t13.5 -4q35 4 94 26t103 47q11 6 17 4t5.5 -9.5t-8.5 -13.5q-16 -11 -52.5 -31.5t-90 -43t-93.5 -34.5t-64 -12q-18 -9 -32.5 -9.5t-24.5 6t-17.5 22t-7.5 31.5q0 5 3.5 7.5t9.5 -1.5q15 -10 33 -10q12 0 34 17.5t44.5 53t22.5 63.5q0 23 -9 41t-27 26t-40 8q-8 0 -18.5 -8
t-16.5 -8q-53 0 -53 37q46 42 106.5 158t78.5 196q3 14 -3.5 12.5t-19.5 -17.5q-30 -36 -83.5 -138.5t-122 -260.5t-117 -320.5t-37.5 -245.5z" />
    <glyph glyph-name="agrave" unicode="&#xe0;" horiz-adv-x="519" 
d="M274 317q21 -13 24 -25l35 59q12 8 32.5 0.5t28.5 -15.5q2 -2 4.5 -10t-3.5 -21q-8 -17 -19.5 -34.5t-18.5 -19.5q-28 -60 -37 -116q-10 -59 5.5 -74.5t60.5 8.5q52 27 131 89.5t118 110.5q19 -1 20 -15t-15 -29q-55 -53 -146 -124.5t-142 -94.5q-22 -10 -46 -6.5
t-38 24.5t-11 64q1 17 5 35t24 87q1 5 -1 6t-4 -3q-9 -15 -57 -82.5t-80 -102.5q-13 -14 -32 -23t-42.5 -4t-35.5 29.5t-9 57.5q4 41 17.5 84t37 79t54 60.5t57.5 24.5q20 0 44 -5.5t39 -13.5zM108 51q29 22 78 82t94 130h-6q-6 0 -20.5 10t-28 14.5t-27.5 4.5
q-9 0 -21.5 -6t-20.5 -14q-30 -30 -50.5 -79t-25.5 -103q-3 -27 2 -41t26 2zM179 652q-2 1 -2.5 8t3.5 16.5t10 9.5q9 0 18.5 -7.5t11.5 -15.5q16 -5 52 -67.5t51.5 -83.5t27.5 -31q3 -7 4 -15t-1 -9q0 -6 -2 -10t-5 -4q-10 0 -23 10q-19 15 -64 73.5t-81 125.5z" />
    <glyph glyph-name="aacute" unicode="&#xe1;" horiz-adv-x="519" 
d="M274 317q21 -13 24 -25l35 59q12 8 32.5 0.5t28.5 -15.5q2 -2 4.5 -10t-3.5 -21q-8 -17 -19.5 -34.5t-18.5 -19.5q-28 -60 -37 -116q-10 -59 5.5 -74.5t60.5 8.5q52 27 131 89.5t118 110.5q19 -1 20 -15t-15 -29q-55 -53 -146 -124.5t-142 -94.5q-22 -10 -46 -6.5
t-38 24.5t-11 64q1 17 5 35t24 87q1 5 -1 6t-4 -3q-9 -15 -57 -82.5t-80 -102.5q-13 -14 -32 -23t-42.5 -4t-35.5 29.5t-9 57.5q4 41 17.5 84t37 79t54 60.5t57.5 24.5q20 0 44 -5.5t39 -13.5zM108 51q29 22 78 82t94 130h-6q-6 0 -20.5 10t-28 14.5t-27.5 4.5
q-9 0 -21.5 -6t-20.5 -14q-30 -30 -50.5 -79t-25.5 -103q-3 -27 2 -41t26 2zM92 449l13 27q5 3 20 13.5t120 87.5t154 102q18 9 27 7q2 -1 5 -12t3 -15q-16 -8 -27 -24q-25 -13 -71.5 -45.5t-199.5 -152.5q-9 -7 -10.5 -7.5t-3 -0.5h-2.5q-9 0 -14 4t-9 9.5t-5 6.5z" />
    <glyph glyph-name="acircumflex" unicode="&#xe2;" horiz-adv-x="519" 
d="M274 317q21 -13 24 -25l35 59q12 8 32.5 0.5t28.5 -15.5q2 -2 4.5 -10t-3.5 -21q-8 -17 -19.5 -34.5t-18.5 -19.5q-28 -60 -37 -116q-10 -59 5.5 -74.5t60.5 8.5q52 27 131 89.5t118 110.5q19 -1 20 -15t-15 -29q-55 -53 -146 -124.5t-142 -94.5q-22 -10 -46 -6.5
t-38 24.5t-11 64q1 17 5 35t24 87q1 5 -1 6t-4 -3q-9 -15 -57 -82.5t-80 -102.5q-13 -14 -32 -23t-42.5 -4t-35.5 29.5t-9 57.5q4 41 17.5 84t37 79t54 60.5t57.5 24.5q20 0 44 -5.5t39 -13.5zM332 609q-35 -12 -118 -72.5t-103 -68.5q-7 -3 -18.5 -0.5t-21.5 15t-9 26.5
q51 23 122.5 65.5t121.5 77.5q4 3 17 23t20 20q13 0 29 -13.5t20 -40.5q0 -15 6.5 -37.5t19.5 -51t33 -65.5t24 -45q-3 -8 -19.5 -9.5t-26.5 5.5q-11 8 -47 70t-50 101zM108 51q29 22 78 82t94 130h-6q-6 0 -20.5 10t-28 14.5t-27.5 4.5q-9 0 -21.5 -6t-20.5 -14
q-30 -30 -50.5 -79t-25.5 -103q-3 -27 2 -41t26 2z" />
    <glyph glyph-name="atilde" unicode="&#xe3;" horiz-adv-x="519" 
d="M274 317q21 -13 24 -25l35 59q12 8 32.5 0.5t28.5 -15.5q2 -2 4.5 -10t-3.5 -21q-8 -17 -19.5 -34.5t-18.5 -19.5q-28 -60 -37 -116q-10 -59 5.5 -74.5t60.5 8.5q52 27 131 89.5t118 110.5q19 -1 20 -15t-15 -29q-55 -53 -146 -124.5t-142 -94.5q-22 -10 -46 -6.5
t-38 24.5t-11 64q1 17 5 35t24 87q1 5 -1 6t-4 -3q-9 -15 -57 -82.5t-80 -102.5q-13 -14 -32 -23t-42.5 -4t-35.5 29.5t-9 57.5q4 41 17.5 84t37 79t54 60.5t57.5 24.5q20 0 44 -5.5t39 -13.5zM348 528q20 -6 44 33t24 63q-4 13 -1.5 25.5t13 18t19.5 5.5t15.5 -14.5
t6.5 -38.5q0 -12 -16 -43.5t-48.5 -70.5t-51.5 -39q-9 0 -19 6t-21 19.5t-38.5 55t-46.5 41.5q-15 0 -31.5 -14t-40.5 -44.5t-32 -33.5q-19 -6 -35.5 -2t-21.5 17q28 37 68.5 72t77.5 57q20 -1 38.5 -10t36 -25.5t36.5 -44.5t24 -33zM108 51q29 22 78 82t94 130h-6
q-6 0 -20.5 10t-28 14.5t-27.5 4.5q-9 0 -21.5 -6t-20.5 -14q-30 -30 -50.5 -79t-25.5 -103q-3 -27 2 -41t26 2z" />
    <glyph glyph-name="adieresis" unicode="&#xe4;" horiz-adv-x="519" 
d="M274 317q21 -13 24 -25l35 59q12 8 32.5 0.5t28.5 -15.5q2 -2 4.5 -10t-3.5 -21q-8 -17 -19.5 -34.5t-18.5 -19.5q-28 -60 -37 -116q-10 -59 5.5 -74.5t60.5 8.5q52 27 131 89.5t118 110.5q19 -1 20 -15t-15 -29q-55 -53 -146 -124.5t-142 -94.5q-22 -10 -46 -6.5
t-38 24.5t-11 64q1 17 5 35t24 87q1 5 -1 6t-4 -3q-9 -15 -57 -82.5t-80 -102.5q-13 -14 -32 -23t-42.5 -4t-35.5 29.5t-9 57.5q4 41 17.5 84t37 79t54 60.5t57.5 24.5q20 0 44 -5.5t39 -13.5zM108 51q29 22 78 82t94 130h-6q-6 0 -20.5 10t-28 14.5t-27.5 4.5
q-9 0 -21.5 -6t-20.5 -14q-30 -30 -50.5 -79t-25.5 -103q-3 -27 2 -41t26 2zM270 618q-19 -35 -34.5 -84t-25.5 -66q-6 -6 -11 -4.5t-21 19.5q2 15 17 76t13 94q3 9 14 18t21 9q19 0 27 -62zM423 623q-23 -31 -47.5 -78t-25.5 -48q-8 -8 -18.5 -7.5t-18.5 5.5q5 19 17 56
t17 79q22 47 34 47q13 0 26 -15.5t16 -38.5z" />
    <glyph glyph-name="aring" unicode="&#xe5;" horiz-adv-x="519" 
d="M274 317q21 -13 24 -25l35 59q12 8 32.5 0.5t28.5 -15.5q2 -2 4.5 -10t-3.5 -21q-8 -17 -19.5 -34.5t-18.5 -19.5q-28 -60 -37 -116q-10 -59 5.5 -74.5t60.5 8.5q52 27 131 89.5t118 110.5q19 -1 20 -15t-15 -29q-55 -53 -146 -124.5t-142 -94.5q-22 -10 -46 -6.5
t-38 24.5t-11 64q1 17 5 35t24 87q1 5 -1 6t-4 -3q-9 -15 -57 -82.5t-80 -102.5q-13 -14 -32 -23t-42.5 -4t-35.5 29.5t-9 57.5q4 41 17.5 84t37 79t54 60.5t57.5 24.5q20 0 44 -5.5t39 -13.5zM283 690q15 4 29 -8q11 3 32 -3.5t43.5 -24.5t22.5 -31q0 -33 -23 -67
t-55.5 -59.5t-61 -37t-36.5 -3.5q-3 0 -3 -2.5t-11 -2.5q-14 0 -31.5 12t-26.5 35t-9 50q0 21 16 53t40 56t43 31t31 2zM108 51q29 22 78 82t94 130h-6q-6 0 -20.5 10t-28 14.5t-27.5 4.5q-9 0 -21.5 -6t-20.5 -14q-30 -30 -50.5 -79t-25.5 -103q-3 -27 2 -41t26 2zM363 612
q0 11 -10 22t-22 16q-2 -10 -9.5 -20t-15.5 -11t-16.5 4.5t-14.5 5.5q-18 -7 -35 -30.5t-25 -45.5q-9 -24 -7.5 -43.5t13.5 -18.5q21 1 51.5 20t60.5 52.5t30 48.5z" />
    <glyph glyph-name="ae" unicode="&#xe6;" horiz-adv-x="653" 
d="M751 244q6 1 12.5 -1t6.5 -7t-5 -11q-51 -61 -120.5 -117t-133.5 -86t-118 -34q-25 -8 -47 -5t-38.5 22t-22 47.5t-3.5 47.5q0 7 1.5 19.5t5 30t3.5 19.5q1 4 -0.5 10t-7.5 5.5t-13 -9.5q-1 -2 -5 -7t-35.5 -50t-42 -59t-24.5 -28t-28 -24t-29 -10q-46 0 -64 25t-18 86
q0 25 13.5 62t47 84t70.5 75t60 28q9 0 21 -6t29 -19.5t21 -13.5q5 0 12 11t15 11q9 0 28.5 -19t29.5 -33q38 43 89 76q3 2 6 3t6.5 1.5t6 -0.5t5 -3t3.5 -2q2 -1 7 2.5t9 3.5q7 0 18.5 -11.5t23.5 -36t13 -42.5q1 -23 -16 -38q-2 -16 -6 -20q-63 -77 -196 -150
q4 -37 33 -41t90 16q67 22 145.5 75t141.5 123zM286 271q-42 30 -66 30q-13 0 -32 -9t-39.5 -29.5t-39 -56t-27.5 -84.5q-3 -13 -3.5 -36.5t2.5 -35t7 -11.5q14 0 44.5 26t76.5 87.5t77 118.5zM482 316q-3 0 -13 -2.5t-35 -22t-55.5 -72.5t-37.5 -106q32 15 75.5 46.5
t72.5 67t30 62.5q0 7 -15.5 17t-21.5 10z" />
    <glyph glyph-name="ccedilla" unicode="&#xe7;" horiz-adv-x="361" 
d="M223 271q-26 4 -62 -27.5t-58 -72t-27 -69.5q-11 -59 10 -81t70 -5q16 6 39 16t55.5 28t66.5 40t57.5 38.5t47.5 33t28 19.5q5 2 6 -1t-1.5 -9.5t-7.5 -10.5q-51 -45 -127 -98.5t-133 -78.5q-33 -52 -38 -72q3 -2 50 -17.5t65.5 -34.5t18.5 -41q0 -14 -13 -38t-44.5 -51
t-62 -40.5t-57.5 -12.5q-14 -9 -36.5 4t-25.5 28t10 23q1 0 4 -0.5t5.5 -2.5t13.5 -12.5t18 -10.5q19 0 56 17.5t61.5 41.5t24.5 52q0 8 -11.5 15.5t-62.5 20t-66 22.5q-22 15 -17 39q2 11 27 42q-17 1 -35 8.5t-31.5 25t-20 44.5t-0.5 62q13 75 61 135q23 28 53 51
q4 3 4.5 9.5t4.5 9.5q34 23 63 27.5t39 -8.5q2 -2 7 1t8 1q13 -8 25.5 -22.5t12.5 -27.5t-10 -25t-24 -12q-35 0 -41 27z" />
    <glyph glyph-name="egrave" unicode="&#xe8;" horiz-adv-x="383" 
d="M479 244q6 1 12.5 -1t6.5 -7t-5 -11q-51 -61 -120.5 -117t-133.5 -86t-118 -34q-25 -8 -47 -5t-38.5 22t-22 47.5t-3.5 47.5q6 72 57 145t122 119q3 2 6 3t6.5 1.5t6 -0.5t5 -3t3.5 -2q2 -1 7 2.5t9 3.5q7 0 18.5 -11.5t23.5 -36t13 -42.5q1 -23 -16 -38q-2 -16 -6 -20
q-63 -77 -196 -150q4 -37 33 -41t90 16q67 22 145.5 75t141.5 123zM210 316q-3 0 -13 -2.5t-35 -22t-55.5 -72.5t-37.5 -106q32 15 75.5 46.5t72.5 67t30 62.5q0 7 -15.5 17t-21.5 10zM149 642q-2 1 -2.5 8t3.5 16.5t10 9.5q9 0 18.5 -7.5t11.5 -15.5q16 -5 52 -67.5
t51.5 -83.5t27.5 -31q3 -7 4 -15t-1 -9q0 -6 -2 -10t-5 -4q-10 0 -23 10q-19 15 -64 73.5t-81 125.5z" />
    <glyph glyph-name="eacute" unicode="&#xe9;" horiz-adv-x="383" 
d="M479 244q6 1 12.5 -1t6.5 -7t-5 -11q-51 -61 -120.5 -117t-133.5 -86t-118 -34q-25 -8 -47 -5t-38.5 22t-22 47.5t-3.5 47.5q6 72 57 145t122 119q3 2 6 3t6.5 1.5t6 -0.5t5 -3t3.5 -2q2 -1 7 2.5t9 3.5q7 0 18.5 -11.5t23.5 -36t13 -42.5q1 -23 -16 -38q-2 -16 -6 -20
q-63 -77 -196 -150q4 -37 33 -41t90 16q67 22 145.5 75t141.5 123zM79 463l13 27q5 3 20 13.5t120 87.5t154 102q18 9 27 7q2 -1 5 -12t3 -15q-16 -8 -27 -24q-25 -13 -71.5 -45.5t-199.5 -152.5q-9 -7 -10.5 -7.5t-3 -0.5h-2.5q-9 0 -14 4t-9 9.5t-5 6.5zM210 316
q-3 0 -13 -2.5t-35 -22t-55.5 -72.5t-37.5 -106q32 15 75.5 46.5t72.5 67t30 62.5q0 7 -15.5 17t-21.5 10z" />
    <glyph glyph-name="ecircumflex" unicode="&#xea;" horiz-adv-x="383" 
d="M479 244q6 1 12.5 -1t6.5 -7t-5 -11q-51 -61 -120.5 -117t-133.5 -86t-118 -34q-25 -8 -47 -5t-38.5 22t-22 47.5t-3.5 47.5q6 72 57 145t122 119q3 2 6 3t6.5 1.5t6 -0.5t5 -3t3.5 -2q2 -1 7 2.5t9 3.5q7 0 18.5 -11.5t23.5 -36t13 -42.5q1 -23 -16 -38q-2 -16 -6 -20
q-63 -77 -196 -150q4 -37 33 -41t90 16q67 22 145.5 75t141.5 123zM287 614q-35 -12 -118 -72.5t-103 -68.5q-7 -3 -18.5 -0.5t-21.5 15t-9 26.5q51 23 122.5 65.5t121.5 77.5q4 3 17 23t20 20q13 0 29 -13.5t20 -40.5q0 -15 6.5 -37.5t19.5 -51t33 -65.5t24 -45
q-3 -8 -19.5 -9.5t-26.5 5.5q-11 8 -47 70t-50 101zM210 316q-3 0 -13 -2.5t-35 -22t-55.5 -72.5t-37.5 -106q32 15 75.5 46.5t72.5 67t30 62.5q0 7 -15.5 17t-21.5 10z" />
    <glyph glyph-name="edieresis" unicode="&#xeb;" horiz-adv-x="383" 
d="M479 244q6 1 12.5 -1t6.5 -7t-5 -11q-51 -61 -120.5 -117t-133.5 -86t-118 -34q-25 -8 -47 -5t-38.5 22t-22 47.5t-3.5 47.5q6 72 57 145t122 119q3 2 6 3t6.5 1.5t6 -0.5t5 -3t3.5 -2q2 -1 7 2.5t9 3.5q7 0 18.5 -11.5t23.5 -36t13 -42.5q1 -23 -16 -38q-2 -16 -6 -20
q-63 -77 -196 -150q4 -37 33 -41t90 16q67 22 145.5 75t141.5 123zM210 316q-3 0 -13 -2.5t-35 -22t-55.5 -72.5t-37.5 -106q32 15 75.5 46.5t72.5 67t30 62.5q0 7 -15.5 17t-21.5 10zM232 612q-19 -35 -34.5 -84t-25.5 -66q-6 -6 -11 -4.5t-21 19.5q2 15 17 76t13 94
q3 9 14 18t21 9q19 0 27 -62zM385 617q-23 -31 -47.5 -78t-25.5 -48q-8 -8 -18.5 -7.5t-18.5 5.5q5 19 17 56t17 79q22 47 34 47q13 0 26 -15.5t16 -38.5z" />
    <glyph glyph-name="igrave" unicode="&#xec;" horiz-adv-x="310" 
d="M81 351q10 9 23 10t18 -4q3 -3 1.5 -10t1.5 -9q30 -21 32 -42q4 -10 -37.5 -104.5t-51.5 -132.5q-8 -30 -5 -43.5t22 -8.5q64 30 150.5 98t139.5 126q7 2 10.5 -3t1 -13t-7.5 -14q-27 -34 -86.5 -86.5t-126 -100.5t-89.5 -49q-12 -6 -28.5 -4t-28 17t-7.5 34
q-4 15 2.5 48t28.5 103t31 103.5t9.5 54.5t-3.5 30zM76 652q-2 1 -2.5 8t3.5 16.5t10 9.5q9 0 18.5 -7.5t11.5 -15.5q16 -5 52 -67.5t51.5 -83.5t27.5 -31q3 -7 4 -15t-1 -9q0 -6 -2 -10t-5 -4q-10 0 -23 10q-19 15 -64 73.5t-81 125.5z" />
    <glyph glyph-name="iacute" unicode="&#xed;" horiz-adv-x="310" 
d="M81 351q10 9 23 10t18 -4q3 -3 1.5 -10t1.5 -9q30 -21 32 -42q4 -10 -37.5 -104.5t-51.5 -132.5q-8 -30 -5 -43.5t22 -8.5q64 30 150.5 98t139.5 126q7 2 10.5 -3t1 -13t-7.5 -14q-27 -34 -86.5 -86.5t-126 -100.5t-89.5 -49q-12 -6 -28.5 -4t-28 17t-7.5 34
q-4 15 2.5 48t28.5 103t31 103.5t9.5 54.5t-3.5 30zM-11 449l13 27q5 3 20 13.5t120 87.5t154 102q18 9 27 7q2 -1 5 -12t3 -15q-16 -8 -27 -24q-25 -13 -71.5 -45.5t-199.5 -152.5q-9 -7 -10.5 -7.5t-3 -0.5h-2.5q-9 0 -14 4t-9 9.5t-5 6.5z" />
    <glyph glyph-name="icircumflex" unicode="&#xee;" horiz-adv-x="310" 
d="M81 351q10 9 23 10t18 -4q3 -3 1.5 -10t1.5 -9q30 -21 32 -42q4 -10 -37.5 -104.5t-51.5 -132.5q-8 -30 -5 -43.5t22 -8.5q64 30 150.5 98t139.5 126q7 2 10.5 -3t1 -13t-7.5 -14q-27 -34 -86.5 -86.5t-126 -100.5t-89.5 -49q-12 -6 -28.5 -4t-28 17t-7.5 34
q-4 15 2.5 48t28.5 103t31 103.5t9.5 54.5t-3.5 30zM200 603q-35 -12 -118 -72.5t-103 -68.5q-7 -3 -18.5 -0.5t-21.5 15t-9 26.5q51 23 122.5 65.5t121.5 77.5q4 3 17 23t20 20q13 0 29 -13.5t20 -40.5q0 -15 6.5 -37.5t19.5 -51t33 -65.5t24 -45q-3 -8 -19.5 -9.5
t-26.5 5.5q-11 8 -47 70t-50 101z" />
    <glyph glyph-name="idieresis" unicode="&#xef;" horiz-adv-x="310" 
d="M81 351q10 9 23 10t18 -4q3 -3 1.5 -10t1.5 -9q30 -21 32 -42q4 -10 -37.5 -104.5t-51.5 -132.5q-8 -30 -5 -43.5t22 -8.5q64 30 150.5 98t139.5 126q7 2 10.5 -3t1 -13t-7.5 -14q-27 -34 -86.5 -86.5t-126 -100.5t-89.5 -49q-12 -6 -28.5 -4t-28 17t-7.5 34
q-4 15 2.5 48t28.5 103t31 103.5t9.5 54.5t-3.5 30zM308 631q-23 -31 -47.5 -78t-25.5 -48q-8 -8 -18.5 -7.5t-18.5 5.5q5 19 17 56t17 79q22 47 34 47q13 0 26 -15.5t16 -38.5zM155 626q-19 -35 -34.5 -84t-25.5 -66q-6 -6 -11 -4.5t-21 19.5q2 15 17 76t13 94q3 9 14 18
t21 9q19 0 27 -62z" />
    <glyph glyph-name="eth" unicode="&#xf0;" horiz-adv-x="549" 
d="M254 785q21 0 40.5 -8t39 -24t42.5 -52.5t37 -90.5q63 29 125.5 51t74.5 22q8 0 14 -3t6 -7t-14.5 -13t-22.5 -11q-6 -2 -11.5 0t-8.5 1q-86 -29 -157 -71q6 -33 6 -68q0 -14 -7 -51q0 -2 3.5 -4t3.5 -4q0 -1 -3.5 -5t-2.5 -6q3 -6 3 -16q-1 -58 -26 -137.5t-66.5 -153.5
t-93 -121.5t-100.5 -47.5q-36 0 -59 32t-23 89q0 56 17 103.5t41 79.5t46 50t30 18q27 0 46 -25q2 -2 3.5 0.5t5.5 0.5q9 -5 24 -22t31.5 -46.5t22.5 -56.5q29 62 46.5 129t17.5 124q0 58 -5 115q-82 -53 -123 -106q-6 -18 -20 -28t-23 -10q-8 0 -20.5 7t-12.5 18
q0 10 16.5 27t25.5 22q3 2 7 2.5t7 3.5l8 14q46 43 130 85q-12 71 -35 108t-53 37q-15 0 -28 -7t-23 -24t-16 -43t-7 -27q-9 -6 -24 4.5t-15 24.5q0 121 80 121zM140 1q17 0 42 12t54.5 44.5t55.5 76.5q-11 5 -26 17.5t-15 19.5q0 5 5.5 21t5.5 24q0 11 -10.5 28.5t-27 26.5
t-32.5 9q-9 0 -39.5 -37.5t-46.5 -82.5t-16 -85q0 -14 8.5 -34.5t20 -30t21.5 -9.5z" />
    <glyph glyph-name="ntilde" unicode="&#xf1;" horiz-adv-x="556" 
d="M146 357q7 2 21 2.5t21 -0.5q4 -1 7.5 -14.5t1.5 -20.5q-1 -4 -4 -4.5t-7 -4.5q-100 -233 -87 -254q1 1 3 3.5t9.5 11t28.5 34.5t36 45t32 39.5t31 35.5t31 32.5t39.5 37.5t47.5 36q9 6 34 11q28 6 35 -26t-12 -76q-1 -2 -7 -8t-4 -11q-3 -12 -19 -62.5t-18 -73t-2 -29.5
q1 -18 8 -23.5t22 0.5q47 21 123 83t140 134q5 -2 9.5 -11t-0.5 -14q-57 -69 -136.5 -139t-131.5 -95q-21 -10 -43 -12t-37 11.5t-16 37.5q-1 7 2.5 10.5t3.5 8.5q-3 11 0.5 32.5t28.5 92.5t30 102q2 17 -22 1q-36 -23 -70 -58t-60 -70t-44 -63.5t-38.5 -61.5t-24.5 -40
q-3 -5 -16 -7.5t-27 0t-16 14.5q-9 4 -11 29t2 44q15 64 45.5 149t60.5 141zM421 528q20 -6 44 33t24 63q-4 13 -1.5 25.5t13 18t19.5 5.5t15.5 -14.5t6.5 -38.5q0 -12 -16 -43.5t-48.5 -70.5t-51.5 -39q-9 0 -19 6t-21 19.5t-38.5 55t-46.5 41.5q-15 0 -31.5 -14
t-40.5 -44.5t-32 -33.5q-19 -6 -35.5 -2t-21.5 17q28 37 68.5 72t77.5 57q20 -1 38.5 -10t36 -25.5t36.5 -44.5t24 -33z" />
    <glyph glyph-name="ograve" unicode="&#xf2;" horiz-adv-x="415" 
d="M95 336q0 7 9.5 13.5t28.5 9t27 2.5q5 0 10.5 -7.5t8.5 -18.5q13 0 37 -7.5t53 -22t44 -25.5q24 -17 39 -41.5t10 -45.5t-68.5 -88.5t-105.5 -100.5q-51 -38 -100 -24q-24 7 -40.5 26t-18.5 50t4 61q3 18 24 67.5t29.5 84.5t8.5 67zM257 272q-33 -2 -51 -2t-34 6
q-1 -2 -3 -5t-23.5 -36t-40.5 -73.5t-23 -75t6 -59.5q14 -37 89 22q41 34 73.5 71.5t45.5 65.5q8 17 4.5 36.5t-16.5 32t-27 17.5zM141 642q-2 1 -2.5 8t3.5 16.5t10 9.5q9 0 18.5 -7.5t11.5 -15.5q16 -5 52 -67.5t51.5 -83.5t27.5 -31q3 -7 4 -15t-1 -9q0 -6 -2 -10t-5 -4
q-10 0 -23 10q-19 15 -64 73.5t-81 125.5z" />
    <glyph glyph-name="oacute" unicode="&#xf3;" horiz-adv-x="415" 
d="M95 336q0 7 9.5 13.5t28.5 9t27 2.5q5 0 10.5 -7.5t8.5 -18.5q13 0 37 -7.5t53 -22t44 -25.5q24 -17 39 -41.5t10 -45.5t-68.5 -88.5t-105.5 -100.5q-51 -38 -100 -24q-24 7 -40.5 26t-18.5 50t4 61q3 18 24 67.5t29.5 84.5t8.5 67zM257 272q-33 -2 -51 -2t-34 6
q-1 -2 -3 -5t-23.5 -36t-40.5 -73.5t-23 -75t6 -59.5q14 -37 89 22q41 34 73.5 71.5t45.5 65.5q8 17 4.5 36.5t-16.5 32t-27 17.5zM117 461l13 27q5 3 20 13.5t120 87.5t154 102q18 9 27 7q2 -1 5 -12t3 -15q-16 -8 -27 -24q-25 -13 -71.5 -45.5t-199.5 -152.5
q-9 -7 -10.5 -7.5t-3 -0.5h-2.5q-9 0 -14 4t-9 9.5t-5 6.5z" />
    <glyph glyph-name="ocircumflex" unicode="&#xf4;" horiz-adv-x="415" 
d="M95 336q0 7 9.5 13.5t28.5 9t27 2.5q5 0 10.5 -7.5t8.5 -18.5q13 0 37 -7.5t53 -22t44 -25.5q24 -17 39 -41.5t10 -45.5t-68.5 -88.5t-105.5 -100.5q-51 -38 -100 -24q-24 7 -40.5 26t-18.5 50t4 61q3 18 24 67.5t29.5 84.5t8.5 67zM257 272q-33 -2 -51 -2t-34 6
q-1 -2 -3 -5t-23.5 -36t-40.5 -73.5t-23 -75t6 -59.5q14 -37 89 22q41 34 73.5 71.5t45.5 65.5q8 17 4.5 36.5t-16.5 32t-27 17.5zM329 596q-35 -12 -118 -72.5t-103 -68.5q-7 -3 -18.5 -0.5t-21.5 15t-9 26.5q51 23 122.5 65.5t121.5 77.5q4 3 17 23t20 20q13 0 29 -13.5
t20 -40.5q0 -15 6.5 -37.5t19.5 -51t33 -65.5t24 -45q-3 -8 -19.5 -9.5t-26.5 5.5q-11 8 -47 70t-50 101z" />
    <glyph glyph-name="otilde" unicode="&#xf5;" horiz-adv-x="415" 
d="M95 336q0 7 9.5 13.5t28.5 9t27 2.5q5 0 10.5 -7.5t8.5 -18.5q13 0 37 -7.5t53 -22t44 -25.5q24 -17 39 -41.5t10 -45.5t-68.5 -88.5t-105.5 -100.5q-51 -38 -100 -24q-24 7 -40.5 26t-18.5 50t4 61q3 18 24 67.5t29.5 84.5t8.5 67zM257 272q-33 -2 -51 -2t-34 6
q-1 -2 -3 -5t-23.5 -36t-40.5 -73.5t-23 -75t6 -59.5q14 -37 89 22q41 34 73.5 71.5t45.5 65.5q8 17 4.5 36.5t-16.5 32t-27 17.5zM367 518q20 -6 44 33t24 63q-4 13 -1.5 25.5t13 18t19.5 5.5t15.5 -14.5t6.5 -38.5q0 -12 -16 -43.5t-48.5 -70.5t-51.5 -39q-9 0 -19 6
t-21 19.5t-38.5 55t-46.5 41.5q-15 0 -31.5 -14t-40.5 -44.5t-32 -33.5q-19 -6 -35.5 -2t-21.5 17q28 37 68.5 72t77.5 57q20 -1 38.5 -10t36 -25.5t36.5 -44.5t24 -33z" />
    <glyph glyph-name="odieresis" unicode="&#xf6;" horiz-adv-x="415" 
d="M95 336q0 7 9.5 13.5t28.5 9t27 2.5q5 0 10.5 -7.5t8.5 -18.5q13 0 37 -7.5t53 -22t44 -25.5q24 -17 39 -41.5t10 -45.5t-68.5 -88.5t-105.5 -100.5q-51 -38 -100 -24q-24 7 -40.5 26t-18.5 50t4 61q3 18 24 67.5t29.5 84.5t8.5 67zM257 272q-33 -2 -51 -2t-34 6
q-1 -2 -3 -5t-23.5 -36t-40.5 -73.5t-23 -75t6 -59.5q14 -37 89 22q41 34 73.5 71.5t45.5 65.5q8 17 4.5 36.5t-16.5 32t-27 17.5zM262 600q-19 -35 -34.5 -84t-25.5 -66q-6 -6 -11 -4.5t-21 19.5q2 15 17 76t13 94q3 9 14 18t21 9q19 0 27 -62zM415 605q-23 -31 -47.5 -78
t-25.5 -48q-8 -8 -18.5 -7.5t-18.5 5.5q5 19 17 56t17 79q22 47 34 47q13 0 26 -15.5t16 -38.5z" />
    <glyph glyph-name="divide" unicode="&#xf7;" horiz-adv-x="553" 
d="M289 417q4 -23 1 -37.5t-22 -16.5q-7 -1 -17.5 2.5t-21.5 11.5t-12 16q0 1 -2 10.5t-0.5 17.5t6.5 12.5t14 6.5q10 2 20.5 0t21 -11.5t12.5 -11.5zM89 242q22 -2 67 -0.5t143.5 12.5t104.5 11q10 0 17 -5.5t9 -13.5q1 -4 0.5 -10.5t-13.5 -16.5q-15 1 -53.5 1t-120 -17
t-110.5 -17q-25 0 -40.5 8.5t-19.5 22t2.5 20t13.5 5.5zM252 41q4 -23 1 -37.5t-22 -16.5q-7 -1 -17.5 2.5t-21.5 11.5t-12 16q0 1 -2 10.5t-0.5 17.5t6.5 12.5t14 6.5q10 2 20.5 0t21 -11.5t12.5 -11.5z" />
    <glyph glyph-name="oslash" unicode="&#xf8;" horiz-adv-x="415" 
d="M378 560q5 13 28 13q10 0 27 -17.5t13 -29.5q-6 -19 -34 -44.5t-50 -34.5q-20 -37 -83 -146l34 -21q24 -17 39 -41.5t10 -45.5t-68.5 -88.5t-105.5 -100.5q-18 -14 -40 -21t-41 -6q-17 -39 -22 -58q-3 -9 6.5 -25t9.5 -20q0 -9 -15 -36t-19 -27q-8 0 -25 -6.5t-22 -6.5
q-10 0 -13 2.5t-2 11t6 27.5q14 52 61 147q-19 9 -31 28.5t-13 47.5t5 55q3 18 24 67.5t29.5 84.5t8.5 67q0 7 9.5 13.5t28.5 9t27 2.5q5 0 10.5 -7.5t8.5 -18.5q25 -1 72 -21q103 185 127 246zM296 186q10 23 1.5 47.5t-35.5 36.5q-86 -150 -137 -254q19 8 52 33
q41 34 73.5 71.5t45.5 65.5zM225 270q-33 -2 -53 6q-1 -2 -3 -5t-23.5 -36t-40.5 -73.5t-23 -75t6 -59.5l2 -5q30 59 135 248z" />
    <glyph glyph-name="ugrave" unicode="&#xf9;" horiz-adv-x="567" 
d="M124 338q15 8 30.5 2t26 -26.5t7.5 -30.5q-2 -8 -14 -26t-31 -37q-17 -22 -34.5 -80t-19.5 -95q-1 -10 4.5 -14t28.5 5q39 15 101 75t86 112q-1 4 0 9.5t5 11.5t10 7q14 2 34 -3q6 -2 12 -20t4 -30q-1 -2 -7.5 -5.5t-8.5 -4.5q-8 -41 -11.5 -102.5t11.5 -68.5
q14 -6 62 19.5t127.5 88.5t110.5 102q7 -1 7 -9.5t-7 -16.5q-31 -38 -89.5 -91t-124 -95.5t-88.5 -40.5q-4 3 -9.5 3t-8.5 2q-21 12 -34.5 37t-12.5 62.5t10 69.5q1 2 1 4.5t-1.5 2t-4.5 -4.5q-28 -37 -64.5 -77.5t-62.5 -63.5t-40 -30q-29 -14 -39 -7q-3 2 -13.5 -4
t-20.5 -3q-16 5 -24 23.5t-1 46.5q0 14 8.5 49.5t43 132.5t41.5 121zM195 652q-2 1 -2.5 8t3.5 16.5t10 9.5q9 0 18.5 -7.5t11.5 -15.5q16 -5 52 -67.5t51.5 -83.5t27.5 -31q3 -7 4 -15t-1 -9q0 -6 -2 -10t-5 -4q-10 0 -23 10q-19 15 -64 73.5t-81 125.5z" />
    <glyph glyph-name="uacute" unicode="&#xfa;" horiz-adv-x="567" 
d="M124 338q15 8 30.5 2t26 -26.5t7.5 -30.5q-2 -8 -14 -26t-31 -37q-17 -22 -34.5 -80t-19.5 -95q-1 -10 4.5 -14t28.5 5q39 15 101 75t86 112q-1 4 0 9.5t5 11.5t10 7q14 2 34 -3q6 -2 12 -20t4 -30q-1 -2 -7.5 -5.5t-8.5 -4.5q-8 -41 -11.5 -102.5t11.5 -68.5
q14 -6 62 19.5t127.5 88.5t110.5 102q7 -1 7 -9.5t-7 -16.5q-31 -38 -89.5 -91t-124 -95.5t-88.5 -40.5q-4 3 -9.5 3t-8.5 2q-21 12 -34.5 37t-12.5 62.5t10 69.5q1 2 1 4.5t-1.5 2t-4.5 -4.5q-28 -37 -64.5 -77.5t-62.5 -63.5t-40 -30q-29 -14 -39 -7q-3 2 -13.5 -4
t-20.5 -3q-16 5 -24 23.5t-1 46.5q0 14 8.5 49.5t43 132.5t41.5 121zM167 445l13 27q5 3 20 13.5t120 87.5t154 102q18 9 27 7q2 -1 5 -12t3 -15q-16 -8 -27 -24q-25 -13 -71.5 -45.5t-199.5 -152.5q-9 -7 -10.5 -7.5t-3 -0.5h-2.5q-9 0 -14 4t-9 9.5t-5 6.5z" />
    <glyph glyph-name="ucircumflex" unicode="&#xfb;" horiz-adv-x="567" 
d="M124 338q15 8 30.5 2t26 -26.5t7.5 -30.5q-2 -8 -14 -26t-31 -37q-17 -22 -34.5 -80t-19.5 -95q-1 -10 4.5 -14t28.5 5q39 15 101 75t86 112q-1 4 0 9.5t5 11.5t10 7q14 2 34 -3q6 -2 12 -20t4 -30q-1 -2 -7.5 -5.5t-8.5 -4.5q-8 -41 -11.5 -102.5t11.5 -68.5
q14 -6 62 19.5t127.5 88.5t110.5 102q7 -1 7 -9.5t-7 -16.5q-31 -38 -89.5 -91t-124 -95.5t-88.5 -40.5q-4 3 -9.5 3t-8.5 2q-21 12 -34.5 37t-12.5 62.5t10 69.5q1 2 1 4.5t-1.5 2t-4.5 -4.5q-28 -37 -64.5 -77.5t-62.5 -63.5t-40 -30q-29 -14 -39 -7q-3 2 -13.5 -4
t-20.5 -3q-16 5 -24 23.5t-1 46.5q0 14 8.5 49.5t43 132.5t41.5 121zM347 609q-35 -12 -118 -72.5t-103 -68.5q-7 -3 -18.5 -0.5t-21.5 15t-9 26.5q51 23 122.5 65.5t121.5 77.5q4 3 17 23t20 20q13 0 29 -13.5t20 -40.5q0 -15 6.5 -37.5t19.5 -51t33 -65.5t24 -45
q-3 -8 -19.5 -9.5t-26.5 5.5q-11 8 -47 70t-50 101z" />
    <glyph glyph-name="udieresis" unicode="&#xfc;" horiz-adv-x="567" 
d="M124 338q15 8 30.5 2t26 -26.5t7.5 -30.5q-2 -8 -14 -26t-31 -37q-17 -22 -34.5 -80t-19.5 -95q-1 -10 4.5 -14t28.5 5q39 15 101 75t86 112q-1 4 0 9.5t5 11.5t10 7q14 2 34 -3q6 -2 12 -20t4 -30q-1 -2 -7.5 -5.5t-8.5 -4.5q-8 -41 -11.5 -102.5t11.5 -68.5
q14 -6 62 19.5t127.5 88.5t110.5 102q7 -1 7 -9.5t-7 -16.5q-31 -38 -89.5 -91t-124 -95.5t-88.5 -40.5q-4 3 -9.5 3t-8.5 2q-21 12 -34.5 37t-12.5 62.5t10 69.5q1 2 1 4.5t-1.5 2t-4.5 -4.5q-28 -37 -64.5 -77.5t-62.5 -63.5t-40 -30q-29 -14 -39 -7q-3 2 -13.5 -4
t-20.5 -3q-16 5 -24 23.5t-1 46.5q0 14 8.5 49.5t43 132.5t41.5 121zM463 564q-23 -31 -47.5 -78t-25.5 -48q-8 -8 -18.5 -7.5t-18.5 5.5q5 19 17 56t17 79q22 47 34 47q13 0 26 -15.5t16 -38.5zM310 559q-19 -35 -34.5 -84t-25.5 -66q-6 -6 -11 -4.5t-21 19.5q2 15 17 76
t13 94q3 9 14 18t21 9q19 0 27 -62z" />
    <glyph glyph-name="yacute" unicode="&#xfd;" horiz-adv-x="494" 
d="M130 334q3 6 14 8.5t20 0.5q3 -1 12.5 -5t11 -11.5t-1.5 -13.5t-29.5 -53.5t-47.5 -95.5t-29 -93q-3 -17 0 -21.5t9 0t9 7.5q15 19 65 73.5t93 94.5t59 40q22 0 37.5 -41t18.5 -95t0 -95q31 21 58 23q18 0 32.5 -13.5t16.5 -32.5q2 -12 -4 -23.5t-15 -14.5t-22 5.5
t-17 10.5q-23 -2 -59 -30q-9 -44 -29 -113.5t-50.5 -138.5t-59.5 -96q-6 -6 -15 -5t-18 13t-12 27q-7 32 4.5 88t52.5 132.5t89 126.5q6 50 5 102.5t-9 92.5q-7 28 -33 10q-38 -27 -69.5 -64.5t-81 -108t-76.5 -73.5q-16 -2 -30 13t-13 34l6 23q10 111 108 312zM232 444
l13 27q5 3 20 13.5t120 87.5t154 102q18 9 27 7q2 -1 5 -12t3 -15q-16 -8 -27 -24q-25 -13 -71.5 -45.5t-199.5 -152.5q-9 -7 -10.5 -7.5t-3 -0.5h-2.5q-9 0 -14 4t-9 9.5t-5 6.5zM231 -307q23 44 44 102t33 113q-27 -32 -49 -71t-31 -75.5t-10 -63.5q-1 -14 2 -15.5
t6.5 3.5t4.5 7z" />
    <glyph glyph-name="thorn" unicode="&#xfe;" horiz-adv-x="516" 
d="M68 286q38 4 78 5q20 66 69.5 218.5t66.5 219.5q1 7 6.5 12.5t15 6.5t18.5 -3q11 -5 18 -23t1.5 -41t-19.5 -46q-4 -6 -10.5 -8t-8.5 -3q-51 -108 -120 -333q91 -2 135 -16q22 -7 42 -19t28.5 -29t8.5 -39q0 -11 -3 -25q125 87 217 119q16 5 29.5 4t16.5 -10.5t-6 -14.5
q-111 -40 -274 -148q-22 -43 -61.5 -82t-81.5 -57q-27 -11 -52.5 -5t-27.5 18q-1 10 6 20t11 10q15 0 42.5 16.5t124.5 89.5q14 24 17 50q8 81 -187 68q-87 -299 -117 -509q6 -15 7 -39t-6 -49.5t-15 -31.5q-11 -9 -30 -6.5t-24 19.5q-3 9 2.5 19.5t5.5 15.5q0 6 -0.5 18.5
t0.5 21.5q50 245 138 537l-26 -3q-12 -3 -26 5t-18.5 25t9.5 22z" />
    <glyph glyph-name="ydieresis" unicode="&#xff;" horiz-adv-x="494" 
d="M130 334q3 6 14 8.5t20 0.5q3 -1 12.5 -5t11 -11.5t-1.5 -13.5t-29.5 -53.5t-47.5 -95.5t-29 -93q-3 -17 0 -21.5t9 0t9 7.5q15 19 65 73.5t93 94.5t59 40q22 0 37.5 -41t18.5 -95t0 -95q31 21 58 23q18 0 32.5 -13.5t16.5 -32.5q2 -12 -4 -23.5t-15 -14.5t-22 5.5
t-17 10.5q-23 -2 -59 -30q-9 -44 -29 -113.5t-50.5 -138.5t-59.5 -96q-6 -6 -15 -5t-18 13t-12 27q-7 32 4.5 88t52.5 132.5t89 126.5q6 50 5 102.5t-9 92.5q-7 28 -33 10q-38 -27 -69.5 -64.5t-81 -108t-76.5 -73.5q-16 -2 -30 13t-13 34l6 23q10 111 108 312zM292 624
q-19 -35 -34.5 -84t-25.5 -66q-6 -6 -11 -4.5t-21 19.5q2 15 17 76t13 94q3 9 14 18t21 9q19 0 27 -62zM445 629q-23 -31 -47.5 -78t-25.5 -48q-8 -8 -18.5 -7.5t-18.5 5.5q5 19 17 56t17 79q22 47 34 47q13 0 26 -15.5t16 -38.5zM231 -307q23 44 44 102t33 113
q-27 -32 -49 -71t-31 -75.5t-10 -63.5q-1 -14 2 -15.5t6.5 3.5t4.5 7z" />
    <glyph glyph-name="dotlessi" unicode="&#x131;" horiz-adv-x="310" 
d="M81 351q10 9 23 10t18 -4q3 -3 1.5 -10t1.5 -9q30 -21 32 -42q4 -10 -37.5 -104.5t-51.5 -132.5q-8 -30 -5 -43.5t22 -8.5q64 30 150.5 98t139.5 126q7 2 10.5 -3t1 -13t-7.5 -14q-27 -34 -86.5 -86.5t-126 -100.5t-89.5 -49q-12 -6 -28.5 -4t-28 17t-7.5 34
q-4 15 2.5 48t28.5 103t31 103.5t9.5 54.5t-3.5 30z" />
    <glyph glyph-name="OE" unicode="&#x152;" horiz-adv-x="900" 
d="M507 595q19 12 31.5 6.5t17 -19t4.5 -24.5q60 -3 155 -12.5t152 -16.5q12 -1 7 -12q-10 -17 -20 -16q-122 10 -305 12q-7 -12 -27 -42t-27 -44q-33 -64 -50 -120l-1 -2l-3 -12q65 -7 165.5 6t130.5 41q14 1 23 -3.5t10.5 -16t-8.5 -22.5q-15 -16 -69 -29.5t-131.5 -19
t-129.5 7.5q-9 -43 -7 -94q2 -41 18.5 -73t44 -44.5t58.5 -12.5q37 0 93 18.5t123 61t102 81.5q8 -1 14 -9.5t6 -14.5q0 -14 -21 -35q-44 -44 -108.5 -80t-122 -51t-100.5 -15q-65 0 -107.5 44.5t-46.5 127.5q-21 -33 -57 -75t-85 -72t-99 -30q-29 0 -58 22.5t-48 65
t-19 104.5q0 44 23 113.5t61 137t85.5 112t92.5 44.5q13 0 34.5 -9.5t39.5 -23.5q8 6 24 7q33 3 125 3zM312 449q-10 2 -11.5 11t9 14t30.5 -2q-5 21 -23 39.5t-42 18.5q-28 0 -55 -21.5t-40 -46.5q-7 -20 -16.5 -38.5t-31.5 -42t-34 -42.5q-8 -14 -19.5 -48.5t-17.5 -71
t-6 -63.5q0 -54 27.5 -93t70.5 -39q25 0 61 21.5t81.5 73.5t73 111t27.5 96q0 26 -15 54q-22 -48 -54 -84q-3 1 -10 5.5t-9 15.5q-2 9 10 30.5t16.5 42.5t6.5 41q-18 15 -29 18zM432 395l47 118l-96 -2q19 -29 19 -59l-2 -18q19 -18 32 -39z" />
    <glyph glyph-name="oe" unicode="&#x153;" 
d="M752 244q6 1 12.5 -1t6.5 -7t-5 -11q-51 -61 -120.5 -117t-133.5 -86t-118 -34q-39 -13 -64 0t-37 42.5t-11 61.5q-58 -60 -94 -88q-51 -38 -100 -24q-24 7 -40.5 26t-18.5 50t4 61q3 18 24 67.5t29.5 84.5t8.5 67q0 7 9.5 13.5t28.5 9t27 2.5q5 0 10.5 -7.5t8.5 -18.5
q13 0 37 -7.5t53 -22t44 -25.5q19 -14 30 -29q50 68 119 113q3 2 6 3t6.5 1.5t6 -0.5t5 -3t3.5 -2q2 -1 7 2.5t9 3.5q7 0 18.5 -11.5t23.5 -36t13 -42.5q1 -23 -16 -38q-2 -16 -6 -20q-63 -77 -196 -150q4 -37 33 -41t90 16q67 22 145.5 75t141.5 123zM257 272
q-33 -2 -51 -2t-34 6q-1 -2 -3 -5t-23.5 -36t-40.5 -73.5t-23 -75t6 -59.5q14 -37 89 22q41 34 73.5 71.5t45.5 65.5q8 17 4.5 36.5t-16.5 32t-27 17.5zM483 316q-3 0 -13 -2.5t-35 -22t-55.5 -72.5t-37.5 -106q32 15 75.5 46.5t72.5 67t30 62.5q0 7 -15.5 17t-21.5 10z" />
    <glyph glyph-name="Scaron" unicode="&#x160;" horiz-adv-x="393" 
d="M220 583q-14 1 -24.5 -43.5t-10.5 -98.5q0 -30 4.5 -90t21 -196t16.5 -151q0 -7 -1 -15.5t-3 -13t-4 -5.5t-10 -1q-2 0 -1.5 -5t-2.5 -7q-18 -8 -56 -8q-87 0 -152.5 28.5t-83.5 62.5q-4 6 -5.5 30t4 43.5t13.5 29.5q5 6 8.5 3t1.5 -8q-6 -10 -8.5 -27.5t0 -37.5t6.5 -23
q32 -26 79.5 -44.5t102.5 -18.5q61 0 61 73q0 33 -13.5 154t-18 175t-5.5 83t-1 39q0 53 8 82t17 37t17 8q37 0 52 -21q25 -3 52.5 -22.5t50.5 -54.5t39.5 -75.5t16.5 -58.5q0 -17 -7.5 -28t-23.5 -11q-15 0 -24.5 13.5t-11.5 30.5q-2 27 -17 65t-42.5 72t-44.5 35zM248 733
q23 8 72 52t70 60.5t36 25t21 11.5q15 7 32.5 -7t16.5 -34q-29 -8 -53 -21t-48.5 -31.5t-99.5 -93.5q-11 -13 -29 -21t-29 -8t-23 14t-16 42q-1 4 -2.5 13.5t-8.5 55t-24 79.5q3 8 19.5 9.5t26.5 -5.5q3 -2 6.5 -10t14 -58t18.5 -73z" />
    <glyph glyph-name="scaron" unicode="&#x161;" horiz-adv-x="344" 
d="M-18 67q29 -18 76.5 -30.5t83.5 -12.5q31 0 51 6t25 13q10 13 -8 28q-12 10 -55 42.5t-63 52t-27 26.5q-12 1 -20.5 17t-7 41t15.5 33q78 48 120.5 69t70 28.5t44.5 7.5q12 0 19 -7q10 -8 16 -26t6 -28q0 -9 -4 -13t-10 1q-31 3 -102 -26.5t-106 -56.5q-3 -14 9.5 -34
t72.5 -60.5t76 -58.5q11 -12 17.5 -28t1 -30.5t-20.5 -21.5q-29 -15 -77.5 -15.5t-111.5 21.5t-97 50q-9 7 -5 11.5t10 0.5zM191 540q23 8 72 52t70 60.5t36 25t21 11.5q15 7 32.5 -7t16.5 -34q-29 -8 -53 -21t-48.5 -31.5t-99.5 -93.5q-11 -13 -29 -21t-29 -8t-23 14
t-16 42q-1 4 -2.5 13.5t-8.5 55t-24 79.5q3 8 19.5 9.5t26.5 -5.5q3 -2 6.5 -10t14 -58t18.5 -73z" />
    <glyph glyph-name="Ydieresis" unicode="&#x178;" horiz-adv-x="575" 
d="M181 660q0 6 7.5 13.5t13.5 7.5q3 0 15 -5t22.5 -16t6.5 -22q-39 -94 -66 -116q-4 -3 -11 -0.5t-8 2.5q-46 -92 -61 -178q-19 -107 44 -55q40 33 125 113.5t133 122t87 69.5q8 6 15 1t9 -5q18 -2 29 -17t8.5 -43.5t-11.5 -53.5q-2 -5 -10.5 -6t-12.5 -9
q-10 -25 -29.5 -64.5t-67.5 -123.5t-69 -122t-38 -72.5t-28.5 -65t-13.5 -52.5q-1 -13 6.5 -18.5t23 -5.5t15.5 -2q0 -14 -15.5 -25.5t-33.5 -11.5q-22 0 -38 24t2 72q21 55 83.5 171t82.5 155.5t32.5 67.5t25 60t18.5 63q5 25 -16 10q-24 -17 -63 -50.5t-125.5 -117
t-109.5 -100.5q-17 -13 -37.5 -22t-38 -7t-26.5 14q-18 25 -1 103q9 39 23.5 82t52 117.5t50.5 117.5zM528 858q-23 -31 -47.5 -78t-25.5 -48q-8 -8 -18.5 -7.5t-18.5 5.5q5 19 17 56t17 79q22 47 34 47q13 0 26 -15.5t16 -38.5zM375 853q-19 -35 -34.5 -84t-25.5 -66
q-6 -6 -11 -4.5t-21 19.5q2 15 17 76t13 94q3 9 14 18t21 9q19 0 27 -62z" />
    <glyph glyph-name="Zcaron" unicode="&#x17d;" horiz-adv-x="511" 
d="M459 552h-46q-77 3 -163 25t-113 60q-7 10 -2.5 20.5t17.5 15t30 -2.5t34 -28q8 -9 37.5 -20t87 -20t116 -7t93.5 15q9 -1 22.5 -13.5t8.5 -19.5q-10 -14 -40.5 -46t-72.5 -63q-11 -5 -31 5q-151 -124 -339 -369q-17 -23 2 -35q84 -52 187 -96.5t191 -68.5t153 -24
q83 0 165 22q6 2 7 -3.5t-2.5 -13.5t-10.5 -11q-79 -30 -189 -30q-87 0 -203.5 35.5t-349.5 150.5q-9 -8 -26.5 -3.5t-24.5 9.5q-3 2 -3 7.5v7.5q-18 9 -28 22t-10 25q0 6 16 18.5t23 11.5q1 0 10.5 -5t16.5 -6.5t10 -1.5q11 -1 26 16q239 280 401 421zM382 731q23 8 72 52
t70 60.5t36 25t21 11.5q15 7 32.5 -7t16.5 -34q-29 -8 -53 -21t-48.5 -31.5t-99.5 -93.5q-11 -13 -29 -21t-29 -8t-23 14t-16 42q-1 4 -2.5 13.5t-8.5 55t-24 79.5q3 8 19.5 9.5t26.5 -5.5q3 -2 6.5 -10t14 -58t18.5 -73z" />
    <glyph glyph-name="zcaron" unicode="&#x17e;" horiz-adv-x="436" 
d="M41 299q31 2 115 19t103 17q24 0 44.5 -4t40.5 -18q8 -18 8 -39t-10 -37.5t-23 -26.5q-4 -48 -242 -190q-8 -6 -7.5 -8.5t7.5 -1.5q28 2 92.5 10t88.5 9.5t36.5 1.5t18.5 -2q5 -1 12 1.5t10 2.5q35 0 55.5 -9t20.5 -20q0 -10 -8.5 -22t-17.5 -17q-4 0 -18.5 10.5t-29 15
t-28.5 4.5q-44 0 -124.5 -12.5t-109.5 -15t-48 2.5q-12 -12 -19 -12q-10 0 -26 12t-16 28q0 11 7.5 16.5t29.5 6.5q82 41 135 73.5t120 89.5q22 19 37.5 43.5t15.5 38.5q0 8 -11 17t-23 8q-44 -5 -104.5 -23t-81.5 -22q-15 -2 -34.5 5.5t-24.5 21t9 26.5zM214 485
q23 8 72 52t70 60.5t36 25t21 11.5q15 7 32.5 -7t16.5 -34q-29 -8 -53 -21t-48.5 -31.5t-99.5 -93.5q-11 -13 -29 -21t-29 -8t-23 14t-16 42q-1 4 -2.5 13.5t-8.5 55t-24 79.5q3 8 19.5 9.5t26.5 -5.5q3 -2 6.5 -10t14 -58t18.5 -73z" />
    <glyph glyph-name="florin" unicode="&#x192;" horiz-adv-x="337" 
d="M-64 228q88 -6 167 -7q77 380 121 444q22 56 45 80t51 24q14 0 33.5 -9.5t29.5 -19.5q37 -13 62 -92t25 -197q0 -34 -6 -72t-17 -65.5t-18 -27.5q-8 0 -23 7t-15 16q0 20 10 42.5t11 27.5q9 64 7 134t-21 126.5t-47 75.5q-3 2 -11 -6t-18.5 -22.5t-19 -26.5t-16.5 -23.5
t-8 -12.5q-2 -3 -9.5 2t-13.5 -5q-51 -86 -113 -401q126 -2 181 0q8 0 20 -11t14 -19t-2 -10q-28 -13 -31.5 -14t-5.5 -1q-4 0 -8.5 5.5t-10.5 4.5l-168 -13q-4 -19 -38 -206.5t-52 -231.5q-7 -17 -34 -32.5t-36 -15.5q-1 0 -4.5 0.5t-19.5 7.5q-1 0 -5.5 -2t-9.5 -2
q-29 0 -83 20.5t-89 42t-35 34.5q0 6 5 15t21 14t60 10t60 5q15 0 29.5 -13t11.5 -32q-1 -7 -10 -14t-17 -9q-7 -1 -6 -8t8 -8q36 -4 49 -4q26 0 45.5 20.5t37.5 71.5q5 14 14 54t30.5 148t26.5 133q-48 -4 -81 -4q-29 0 -59.5 14t-30.5 27q0 11 6.5 21t10.5 10z" />
    <glyph glyph-name="circumflex" unicode="&#x2c6;" 
d="M392 609q-35 -12 -118 -72.5t-103 -68.5q-7 -3 -18.5 -0.5t-21.5 15t-9 26.5q51 23 122.5 65.5t121.5 77.5q4 3 17 23t20 20q13 0 29 -13.5t20 -40.5q0 -15 6.5 -37.5t19.5 -51t33 -65.5t24 -45q-3 -8 -19.5 -9.5t-26.5 5.5q-11 8 -47 70t-50 101z" />
    <glyph glyph-name="tilde" unicode="&#x2dc;" 
d="M408 528q20 -6 44 33t24 63q-4 13 -1.5 25.5t13 18t19.5 5.5t15.5 -14.5t6.5 -38.5q0 -12 -16 -43.5t-48.5 -70.5t-51.5 -39q-9 0 -19 6t-21 19.5t-38.5 55t-46.5 41.5q-15 0 -31.5 -14t-40.5 -44.5t-32 -33.5q-19 -6 -35.5 -2t-21.5 17q28 37 68.5 72t77.5 57
q20 -1 38.5 -10t36 -25.5t36.5 -44.5t24 -33z" />
    <glyph glyph-name="endash" unicode="&#x2013;" horiz-adv-x="791" 
d="M217 228q3 0 25.5 -3t31.5 -2q39 2 95.5 9t140 21t91.5 14q18 0 29.5 -14t11.5 -28q0 -13 -13 -21.5t-29 -10.5q-5 -1 -31.5 10t-38.5 10q-40 -4 -144.5 -22.5t-122.5 -18.5q-25 0 -45 13t-20 22q0 7 6.5 14t12.5 7z" />
    <glyph glyph-name="emdash" unicode="&#x2014;" horiz-adv-x="1093" 
d="M217 228q3 0 25.5 -3t31.5 -2q68 3 317 28.5t256 25.5q4 0 21 6t25 4q14 -3 26.5 -14.5t12.5 -20.5q0 -12 -9 -24t-25 -14q-3 -1 -33.5 13t-56.5 12q-34 -2 -131 -11t-264 -33.5t-177 -24.5t-19 5t-14 15t-5 17t6.5 14t12.5 7z" />
    <glyph glyph-name="quoteleft" unicode="&#x2018;" horiz-adv-x="359" 
d="M294 731q9 -2 8 -13t-8 -16q-34 -23 -79.5 -111t-46.5 -133q0 -3 0.5 -7.5t5.5 -1.5q1 0 8 6t12 8t8 2q7 0 14 -19t7 -28q0 -22 -14.5 -35.5t-36.5 -13.5t-35 25.5t-13 68.5q0 17 10 49t43.5 83t72 94t44.5 42z" />
    <glyph glyph-name="quoteright" unicode="&#x2019;" horiz-adv-x="418" 
d="M143 374q-4 -2 -6.5 3t-1 13.5t7.5 12.5q36 24 81.5 102t46.5 121v11t-1 14t-6 6.5t-19 1.5q-18 0 -18 14q0 22 11.5 34.5t32.5 12.5q22 0 40.5 -29.5t18.5 -71.5q0 -27 -24 -71.5t-76 -100t-87 -73.5z" />
    <glyph glyph-name="quotesinglbase" unicode="&#x201a;" horiz-adv-x="316" 
d="M92 -275q-4 -2 -6.5 3t-1 13.5t7.5 12.5q36 24 81.5 102t46.5 121v11t-1 14t-6 6.5t-19 1.5q-18 0 -18 14q0 22 11.5 34.5t32.5 12.5q22 0 40.5 -29.5t18.5 -71.5q0 -27 -24 -71.5t-76 -100t-87 -73.5z" />
    <glyph glyph-name="quotedblleft" unicode="&#x201c;" horiz-adv-x="520" 
d="M278 759q3 2 13.5 -2t9.5 -8t-8 -10t-17 -9q-32 -33 -57.5 -69.5t-37 -69t-11.5 -56.5q0 -20 8.5 -37.5t15.5 -18.5q11 -1 18.5 -5t7.5 -9q0 -11 -4 -21t-8 -10q-12 0 -30 5q-11 3 -23.5 15.5t-21.5 33t-9 36.5q0 36 22 80.5t59.5 89.5t72.5 65zM456 758q9 -2 8 -13
t-8 -16q-34 -23 -79.5 -111t-46.5 -133q0 -3 0.5 -7.5t5.5 -1.5q1 0 8 6t12 8t8 2q7 0 14 -19t7 -28q0 -22 -14.5 -35.5t-36.5 -13.5t-35 25.5t-13 68.5q0 17 10 49t43.5 83t72 94t44.5 42z" />
    <glyph glyph-name="quotedblright" unicode="&#x201d;" horiz-adv-x="585" 
d="M286 344q-3 -2 -13.5 2t-9.5 8t8 10t17 9q32 34 72 88.5t65 102.5t25 78q0 25 -4.5 38t-19.5 18q-42 13 -42 19q0 11 11.5 18.5t16.5 7.5q7 0 30 -5q26 -6 42 -32.5t16 -49.5q0 -27 -28.5 -83.5t-89 -132t-96.5 -96.5zM143 374q-4 -2 -6.5 3t-1 13.5t7.5 12.5
q36 24 81.5 102t46.5 121v11t-1 14t-6 6.5t-19 1.5q-18 0 -18 14q0 22 11.5 34.5t32.5 12.5q22 0 40.5 -29.5t18.5 -71.5q0 -27 -24 -71.5t-76 -100t-87 -73.5z" />
    <glyph glyph-name="quotedblbase" unicode="&#x201e;" horiz-adv-x="482" 
d="M234 -305q-3 -2 -13.5 2t-9.5 8t8 10t17 9q32 34 72 88.5t65 102.5t25 78q0 25 -4.5 38t-19.5 18q-42 13 -42 19q0 11 11.5 18.5t16.5 7.5q7 0 30 -5q26 -6 42 -32.5t16 -49.5q0 -27 -28.5 -83.5t-89 -132t-96.5 -96.5zM91 -275q-4 -2 -6.5 3t-1 13.5t7.5 12.5
q36 24 81.5 102t46.5 121v11t-1 14t-6 6.5t-19 1.5q-18 0 -18 14q0 22 11.5 34.5t32.5 12.5q22 0 40.5 -29.5t18.5 -71.5q0 -27 -24 -71.5t-76 -100t-87 -73.5z" />
    <glyph glyph-name="dagger" unicode="&#x2020;" horiz-adv-x="746" 
d="M573 374q-22 34 -134 30q-26 -126 -41.5 -223t-19.5 -176t7 -132q1 -6 -10 -16.5t-20 -9.5q-9 0 -22 9t-12 26q3 54 15.5 150.5t68.5 369.5q-35 -2 -104 -9t-91 -9q-39 -2 -44 22q-3 21 15 35q75 -8 233 3q27 140 34 203q2 8 -5 12t-8 8t-0.5 20.5t4.5 37.5t11 27
q13 11 25.5 0t19 -36.5t-1.5 -46.5q-6 -39 -24 -124.5t-21 -98.5q64 2 67 2h8q10 0 29 -4t31 -11t15 -13q3 -7 2 -17.5t-10 -20t-17 -8.5z" />
    <glyph glyph-name="daggerdbl" unicode="&#x2021;" horiz-adv-x="746" 
d="M438 774q16 0 27.5 -16.5t13.5 -44.5v-12.5t-3 -50t-30 -205.5q145 4 186 0q12 -1 32 -14t20 -21t-7.5 -21.5t-14.5 -13.5q-5 0 -17.5 14.5t-16.5 14.5q-54 5 -189 1q-28 -175 -38 -248q84 3 172 -7q11 -1 26 -13.5t15 -21.5q0 -16 -16 -16q-6 0 -29 8.5t-26 8.5
q-69 5 -147 2q-24 -184 -11 -252q2 -39 -27 -39q-13 0 -22.5 16.5t-6.5 21.5l7 20q1 3 -1.5 6.5t-1.5 8.5q0 1 0.5 3t4 14.5t3.5 20.5q1 67 16 177l-103 -9q-17 -9 -35.5 -13.5t-32 0.5t-13.5 14q0 10 5 17.5t12 8.5q95 17 172 22q23 160 38 248l-166 -8q-20 -5 -40 3.5
t-20 19.5q0 10 5 18.5t12 7.5q62 -6 216 0l26 162q3 32 2.5 64.5t-9.5 80.5q-1 9 3 16t9 7z" />
    <glyph glyph-name="bullet" unicode="&#x2022;" 
d="M167 267q0 29 19 64t64 66t91 31q29 0 57.5 -14t47 -50.5t18.5 -81.5q0 -21 -11 -45t-38.5 -47.5t-65 -36.5t-65.5 -13q-60 0 -88.5 34t-28.5 93z" />
    <glyph glyph-name="ellipsis" unicode="&#x2026;" horiz-adv-x="1119" 
d="M232 33q5 -32 -4.5 -49.5t-25.5 -19.5q-7 -1 -18.5 2.5t-23 12.5t-12.5 17q-3 18 -2.5 27.5t7 15t14.5 7.5q38 7 65 -13zM605 33q5 -32 -4.5 -49.5t-25.5 -19.5q-7 -1 -18.5 2.5t-23 12.5t-12.5 17q-3 18 -2.5 27.5t7 15t14.5 7.5q38 7 65 -13zM978 33q5 -32 -4.5 -49.5
t-25.5 -19.5q-7 -1 -18.5 2.5t-23 12.5t-12.5 17q-3 18 -2.5 27.5t7 15t14.5 7.5q38 7 65 -13z" />
    <glyph glyph-name="perthousand" unicode="&#x2030;" horiz-adv-x="867" 
d="M391 497q-6 0 -10.5 2.5t-4.5 13.5q0 3 5 13t3 12q-3 3 -23.5 9t-27.5 6q-20 0 -70 -25.5t-75 -56.5t-25 -61q0 -14 3.5 -23.5t17.5 -9.5q26 0 66 18t62 38q7 7 8.5 9.5t-2.5 4.5q-6 2 -12 9t-6 13q0 9 13.5 20.5t35.5 11.5q19 0 30 -10t15 -11q3 0 57.5 -4t74.5 -7
t24 -5q11 -5 16.5 -22.5t4.5 -25.5q-1 -11 -25.5 -35t-71.5 -64q-2 -2 -10 0t-13 -1q-52 -38 -126.5 -116.5t-109 -129t-34.5 -69.5q0 -11 9 -22t9 -17q0 -9 -10 -22t-15 -14q-3 0 -6 1.5t-6 1.5t-11 -5t-10 -5q-4 0 -9 6.5t-5 12.5q0 21 21.5 71t48.5 85q48 62 149 163.5
t121 122t39 43.5q3 4 -18.5 6.5t-68 2.5t-54.5 -2q-1 0 -5 -2t-44 -26.5t-76 -39t-59 -14.5q-29 0 -48.5 21t-19.5 47q0 24 14.5 50.5t43.5 51.5t63 44.5t51 21.5l13 -2q3 0 8 4t7 4q40 1 65.5 -9t29.5 -26q9 -5 14.5 -15.5t5.5 -18.5q0 -13 -12 -18.5t-25 -5.5zM768 166
q-5 9 -18 9q-16 0 -38 -9q53 -45 53 -96q0 -37 -18 -67.5t-45 -43.5t-55 -13q-25 0 -43.5 27.5t-18.5 71.5q0 26 12.5 60t44.5 65l-31 9q-13 5 -12 17t5 13q12 3 17.5 3t9.5 -1q14 -3 40 -18q37 22 70 21q11 0 23 -5.5t35 -18.5q8 1 12.5 -9t3.5 -20q-3 -19 -12.5 -28.5
t-21.5 -9.5q-10 0 -18.5 7.5t-8.5 12.5q0 3 6 10t8 13zM419 254q1 10 11.5 9.5t16.5 -8.5q1 -1 2.5 -3t15.5 -19t23.5 -35.5t14.5 -37.5q13 -9 23.5 -27t10.5 -32q0 -19 -14 -33.5t-25 -14.5q-10 -39 -28.5 -72t-38 -46.5t-34.5 -13.5q-12 0 -24.5 10t-20 31.5t-7.5 40.5
q0 26 13.5 61t44.5 66t62 37q-4 15 -9.5 27t-10.5 19t-16 19.5t-10 21.5zM730 79q0 45 -42 71q-28 -21 -47.5 -55t-19.5 -56q0 -23 8.5 -41.5t22.5 -18.5q15 0 36 16t31.5 39.5t10.5 44.5zM408 -41q24 0 41 44t21 90q-7 12 -12 12q-22 0 -44.5 -31.5t-22.5 -50.5
q0 -17 5 -40.5t12 -23.5z" />
    <glyph glyph-name="guilsinglleft" unicode="&#x2039;" horiz-adv-x="513" 
d="M404 419q11 0 22.5 -10t11.5 -20q0 -2 -5 -7t-74 -34t-111.5 -53.5t-70.5 -47.5t-44 -42q22 -40 67.5 -78.5t95 -72.5t57.5 -41q4 -4 -7 -16t-21.5 -16.5t-14.5 -1.5q-50 30 -225 185q-6 3 -22.5 18.5t-16.5 21.5q0 7 4 19t9 17q3 3 23.5 6t32.5 10q6 3 22 12.5t126.5 80
t140.5 70.5z" />
    <glyph glyph-name="guilsinglright" unicode="&#x203a;" horiz-adv-x="507" 
d="M116 -1q-15 0 -25 8.5t-7 29.5q1 5 11.5 13.5t51 31.5t69 39.5t65.5 42t65 47.5q-15 15 -56 51t-63 61.5t-37 50.5q-5 4 2 14.5t21 13t28 -1.5q50 -107 149 -163q8 -3 24 -15.5t16 -18.5q0 -7 -4 -19t-9 -17q-4 -4 -35.5 -10t-43.5 -12q-14 -7 -40.5 -23t-81.5 -59
t-73 -53.5t-27 -10.5z" />
    <glyph glyph-name="Euro" unicode="&#x20ac;" horiz-adv-x="693" 
d="M599 380q0 -23 -7.5 -48.5t-16.5 -36.5t-14 -11q-25 0 -25 16q0 6 7.5 25.5t7.5 25.5q-1 39 -11.5 74t-18.5 38q-6 2 -36.5 2.5t-33.5 0.5q-41 1 -97 -39t-98 -100q98 -19 154 -16q11 0 23.5 -11t17.5 -21.5t5 -14.5q-1 -7 -6 -12t-12 -5q-4 0 -17.5 13.5t-24.5 13.5
q-65 0 -163 16q-27 -50 -36 -97q32 -2 71.5 -2.5t85 0t48.5 0.5q17 -2 41 -7t36 -12.5t11 -14.5t-6 -12t-12 -5q-6 0 -38.5 6t-37.5 7h-5t-78 -3t-120 -3q1 -76 38.5 -115.5t120.5 -39.5q42 0 95.5 17.5t111.5 61t89 96.5q9 15 22 8.5t13 -17.5q0 -7 -7.5 -17t-8.5 -13
q-9 -26 -51 -59t-106.5 -65.5t-115.5 -44.5q-4 -1 -15 0.5t-16 -0.5q-2 -1 -6.5 -3t-10 -3t-16.5 -1q-78 0 -129 53t-52 143q-68 2 -117 11q-13 2 -18.5 12t-5.5 20q0 8 12.5 16.5t21.5 6.5q41 -11 111 -18q9 53 35 102q-80 16 -123 39q-24 13 -24 32q0 9 7.5 17t15.5 3
q46 -28 146 -52q33 52 78.5 95.5t77.5 59.5t50 15q3 0 15.5 6.5t21.5 6.5q19 0 61 -14q4 -1 5 -7.5t6 -5.5q4 0 5.5 5t6.5 1q25 -18 43.5 -52.5t18.5 -66.5z" />
    <glyph glyph-name="trademark" unicode="&#x2122;" horiz-adv-x="913" 
d="M121 570q-4 -1 -9.5 -4.5t-7.5 -4.5q-3 -1 -11.5 1t-19 8t-10.5 11t2.5 13.5t10.5 9.5q51 7 197 22t204 22q5 1 15.5 -2.5t10.5 -6.5q0 -6 -1.5 -9t-10.5 -6q-3 -1 -12 -3.5t-35 -8.5t-85 -14.5t-148 -18t-90 -9.5zM279 525q-1 4 6 13t16 9q6 0 16 -6.5t20.5 -18
t9.5 -15.5q-2 -14 -10 -41.5t-11 -34.5q-1 -2 -8.5 -3.5t-7.5 -3.5q-1 -4 -14.5 -36.5t-22 -63.5t-8.5 -46q0 -10 -7.5 -20t-21.5 -10q-16 0 -16 11q-1 22 7 58.5t28.5 100t24.5 79.5q3 11 -1 28zM424 394q53 52 154 227q3 4 0 7.5t-1 5.5q23 39 28 39q13 0 30 -23t14 -30
q-28 -53 -37.5 -80.5t-12.5 -58.5q-5 -52 40 -24q31 19 90.5 81.5t60.5 62.5q3 9 11 14t14 5q5 0 20.5 -11.5t15.5 -16.5q0 -3 -1.5 -8.5t-0.5 -7.5q8 -15 7 -22l-30 -164q-1 -3 4.5 -14.5t5.5 -19.5q0 -10 -10 -20.5t-18 -10.5t-22.5 19.5t-13.5 28.5l17 150q1 5 0.5 8
t-8.5 -3q-1 -1 -5.5 -4.5t-62 -58.5t-72.5 -62q-40 -19 -65.5 -9.5t-29.5 53.5q0 4 0.5 12.5t-2 7t-7.5 -7.5q-36 -38 -37 -43q0 -2 3 -12.5t0 -14.5q-19 -30 -38.5 -50.5t-31.5 -20.5q-15 0 -28.5 14.5t-13.5 25.5q0 9 11.5 22t21.5 14z" />
    <glyph glyph-name="glyph3" horiz-adv-x="695" 
d="M-11 -35q-10 -1 -18.5 14t-5.5 26q6 22 56 87t211 248.5t205 240.5l2 2q-32 101 -72 179q-4 8 6.5 15t18.5 7q12 0 16.5 -2t10 -9.5t9.5 -16.5q34 -73 59 -160q15 -5 28 -17t13 -19t-6 -22t-13 -27q22 -95 36 -194q104 14 187 14q52 0 107 -8t55 -18q0 -9 -24.5 -18.5
t-36.5 -9.5q-4 0 -54 7t-71 7q-59 0 -158 -11q16 -116 16 -192q0 -27 -4.5 -99t-4.5 -74q3 -12 -2 -15q-1 -17 -9.5 -39.5t-16.5 -22.5t-20 8t-13 14q0 3 6 7.5t8 13.5q12 68 11 173.5t-16 219.5q-76 -10 -160.5 -27.5t-150.5 -39.5q-6 -2 -13 -5.5t-22 -23.5
q-78 -108 -106 -173q-2 -6 -3.5 -20t-6.5 -14q-4 0 -12 4.5t-12 4.5t-13.5 -7t-16.5 -8zM500 311q-18 104 -27 142q-1 3 -2.5 13t-5 10.5t-15.5 -9.5q-9 -7 -31 -25t-25 -20q-4 -3 -13 0t-14 -2q-81 -74 -130 -140q-7 -10 -5 -15t16 -2q4 1 97.5 20.5t154.5 27.5z" />
    </font>
</defs>
</svg>
